<?xml version="1.0" standalone="no"?>
<!DOCTYPE svg PUBLIC "-//W3C//DTD SVG 1.1//EN" "http://www.w3.org/Graphics/SVG/1.1/DTD/svg11.dtd" >
<svg>
<metadata>
Created by FontForge 20090622 at Fri Dec 21 10:48:54 2018
 By ffonts
Copyright (c) 1991 VNI All Rights Reserved.
</metadata>
<defs>
<font id="VNI-Slogan" horiz-adv-x="12" >
  <font-face 
    font-family="VNI-Slogan"
    font-weight="400"
    font-stretch="normal"
    units-per-em="1000"
    panose-1="0 0 0 0 0 0 0 0 0 0"
    ascent="800"
    descent="-200"
    x-height="254"
    cap-height="648"
    bbox="-528 -274 1418 958"
    underline-thickness="136"
    underline-position="-68"
    unicode-range="U+0020-U+2122"
  />
<missing-glyph horiz-adv-x="726" 
d="M45 0v726h636v-726h-636zM636 45v636h-546v-636h546z" />
    <glyph glyph-name=".notdef" horiz-adv-x="726" 
d="M45 0v726h636v-726h-636zM636 45v636h-546v-636h546z" />
    <glyph glyph-name=".null" horiz-adv-x="0" 
 />
    <glyph glyph-name="nonmarkingreturn" horiz-adv-x="200" 
 />
    <glyph glyph-name="space" unicode=" " horiz-adv-x="200" 
 />
    <glyph glyph-name="exclam" unicode="!" horiz-adv-x="274" 
d="M122 212l-36 -10l100 246q23 56 26 61q21 37 84 37q14 0 14 -10q0 -22 -41 -92q-18 -31 -83 -130q-52 -80 -64 -102zM130 100q-8 -12 -27.5 -24t-34.5 -12q-11 0 -26.5 14.5t-15.5 25.5q0 14 15 25.5l29 22.5q3 6 10 6q9 0 20 -17l16 -25q14 -9 14 -16z" />
    <glyph glyph-name="quotedbl" unicode="&#x22;" horiz-adv-x="274" 
d="M146 468v-16q0 -11 -11 -39q-14 -37 -29 -37q-8 0 -15 23t-7 41q0 39 15 92.5t35 95.5q12 24 26 24q8 0 16.5 -9.5t14 -16.5t5.5 -16q0 -23 -28 -90zM270 468v-16q0 -12 -1.5 -17.5t-10.5 -20.5q-3 -9 -10 -21q-10 -17 -16 -17q-8 0 -16 23t-8 41q0 28 11.5 76t38.5 112
q12 24 26 24q8 0 16 -10q10 -10 14 -15q8 -9 8 -17q0 -22 -29 -90q-18 -40 -23 -52z" />
    <glyph glyph-name="numbersign" unicode="#" horiz-adv-x="744" 
d="M440 264q26 -3 50.5 -5.5t51.5 -2.5q84 0 84 -20q0 -18 -19 -29t-49 -11q-25 0 -75 4t-75 4q-48 -93 -66 -156q-5 -18 -16 -18q-18 0 -30 13t-12 31q0 22 10 48.5t38 83.5l-126 -2q-31 -63 -45 -95t-23 -63q-5 -18 -16 -18q-18 0 -30 13t-12 31q0 22 8.5 45t39.5 83
q-35 0 -63.5 -5t-62.5 -13q-4 -2 -12 -2q-16 0 -16 26q0 35 41.5 49.5t150.5 14.5q23 42 39.5 69t28.5 45q-35 0 -60.5 -3t-87.5 -15q-4 -2 -12 -2q-16 0 -16 26q0 39 59 54q39 10 111 10h50l66 96q38 64 54 64q8 0 14 -10.5t6 -23.5q0 -30 -35 -81q-28 -41 -31 -45
q22 0 72.5 -2t53.5 -2l36 51l34 53q38 64 54 64q20 0 20 -36q0 -30 -40 -88l-34 -48q13 0 39 -3t39 -3q47 0 65.5 -5t18.5 -17q0 -16 -19 -27t-49 -11q-22 0 -65 3t-65 3l-6 -8l-62 -106zM366 268l72 120h-128l-41.5 -71t-26.5 -47z" />
    <glyph glyph-name="dollar" unicode="$" horiz-adv-x="786" 
d="M596 636q12 6 24 6q10 0 17 -8t9 -18q6 -22 22 -42q8 -4 8 -10l-2 -6q-5 -4 -13 -13t-14 -14.5t-25.5 -35.5t-23.5 -31q-7 4 -8 6q-15 12 -30 19.5t-31.5 13t-16.5 13.5q0 14 22 44t22 48t-20 26l-150 -256q38 0 58 1q99 5 100 5q67 0 112 -22q60 -29 60 -88
q0 -61 -38 -124q-30 -50 -86 -102q-83 -78 -186 -117t-218 -39q-20 0 -38 0.5t-40 5.5q-16 -30 -28 -49q-23 -37 -32 -37q-8 0 -8 8q0 13 26 53l20 29q-69 15 -112 56q-50 48 -50 114q0 60 41.5 108.5t102.5 63.5l4 -10q-41 -14 -68 -39q-32 -30 -32 -67q0 -56 51 -99
q46 -39 105 -47l152 274q-61 9 -97.5 53.5t-36.5 108.5q0 118 120 189q103 61 228 61h12q30 52 32 54q16 19 52 30q6 0 6 -6l-6 -12l-42 -72q29 0 46 -26zM498 646q-59 0 -104 -9t-86 -35q-38 -26 -61 -57q-29 -39 -29 -79q0 -50 42 -72q31 -16 88 -16zM158 -22
q20 -3 46 -4.5t58 -1.5q70 0 134 13t120 43q49 25 88 64q52 51 52 94q0 34 -29 53t-65 19q-41 0 -124 -3t-124 -3z" />
    <glyph glyph-name="percent" unicode="%" horiz-adv-x="494" 
d="M200 606q46 -21 46 -72q0 -60 -38 -109q-41 -53 -100 -53q-35 0 -53.5 27t-18.5 65q0 64 39 120q43 62 103 62q14 0 25 -4t11 -16q0 -6 -3.5 -10.5t-10.5 -9.5zM66 444q0 -21 12 -39.5t32 -18.5q42 0 77 64q31 56 31 100q0 14 -12 32t-26 18q-9 0 -32 -16l-30 -22
q-52 -49 -52 -118zM24 6l290 560q16 28 26 39q15 17 40 25q12 5 26.5 10.5t25.5 5.5q10 0 10 -8q0 -4 -2.5 -8t-3.5 -6l-376 -622q-5 -9 -14 -12.5t-24 -3.5l-4 4q0 4 2.5 9zM342 228q46 -25 46 -72q0 -59 -40.5 -111.5t-97.5 -52.5q-36 0 -54 27t-18 67q0 63 39 117
q43 59 103 65q12 0 24 -5t12 -17q0 -11 -14 -18zM208 66q0 -21 12 -39.5t32 -18.5q40 0 76 61q32 54 32 97q0 17 -11 35.5t-27 18.5q-8 0 -23 -9t-39 -29q-52 -46 -52 -116z" />
    <glyph glyph-name="ampersand" unicode="&#x26;" horiz-adv-x="556" 
d="M304 284q0 -73 29 -137q37 -81 101 -81q27 0 53 11t49 31l4 2v-4l-2 -4q-17 -33 -74 -71.5t-94 -38.5q-36 0 -66 27q-21 19 -44 59q-40 -34 -76 -55q-50 -29 -88 -29q-30 0 -51 21t-21 51q0 62 84 123q25 18 138 81q23 68 66 122q55 68 112 68q19 0 31.5 -9.5t12.5 -28.5
q0 -34 -38 -66q-14 -11 -126 -72zM304 302q38 17 67 39q41 31 41 59q0 26 -24 26q-34 0 -58 -47q-17 -33 -26 -77zM244 252q-50 -29 -79 -63q-37 -44 -37 -93q0 -19 11.5 -34.5t30.5 -15.5q23 0 46 14q8 5 38 30q-8 30 -12 50t-4 42q0 37 6 70z" />
    <glyph glyph-name="quotesingle" unicode="'" horiz-adv-x="148" 
d="M172 468v-16q0 -11 -11 -39q-14 -37 -29 -37q-8 0 -15 23t-7 41q0 39 15 92.5t35 95.5q12 24 26 24q8 0 16.5 -9.5t14 -16.5t5.5 -16q0 -23 -28 -90z" />
    <glyph glyph-name="parenleft" unicode="(" horiz-adv-x="388" 
d="M178 -20l8 2q18 0 18 -38q0 -28 -18 -49t-42 -21q-84 0 -84 166q0 112 26 210.5t92 231.5q38 81 82 146q65 96 106 96q15 0 26.5 -10.5t11.5 -23.5q0 -17 -24 -52q-82 -119 -143 -271q-69 -173 -69 -297q0 -14 3 -37.5z" />
    <glyph glyph-name="parenright" unicode=")" horiz-adv-x="388" 
d="M188 616l-8 -4q-6 0 -11 10.5t-5 25.5q0 31 17 52.5t41 21.5q40 0 63 -43.5t23 -122.5q0 -195 -118 -442q-62 -123 -106 -180q-49 -62 -84 -62q-14 0 -26 9t-12 23q0 11 5.5 22t18.5 30q86 122 149 290t63 278q0 23 -4 50t-6 42z" />
    <glyph glyph-name="asterisk" unicode="*" horiz-adv-x="410" 
d="M302 510l51 -38q33 -27 33 -38q0 -7 -9 -23.5t-13 -16.5q-27 21 -40 32l-48 38q0 -19 -3 -58t-3 -60h-4q-48 0 -48 40q0 18 0.5 26t7.5 54l-49 -34q-44 -30 -47 -30q-10 0 -17 10.5t-7 25.5q0 12 30 35q35 27 72 45l-20 16q-23 16 -36 26q-26 19 -26 34q0 10 9 21t19 11
q6 0 29.5 -19t48.5 -45v26q0 57 5 72.5t23 15.5q34 0 34 -16q0 -17 -6 -51t-6 -49l76 36l38 14q2 -2 3 -4.5t1 -9.5l2 -18q0 -15 -14 -24l-30 -13t-24.5 -12t-31.5 -19z" />
    <glyph glyph-name="plus" unicode="+" horiz-adv-x="566" 
d="M356 366q18 0 55 3t57 3h4q24 0 24 -14q0 -10 -9 -24l-13 -20q-13 -24 -22.5 -29.5t-37.5 -8.5l-110 -8q-21 -39 -34.5 -86t-13.5 -88q0 -7 -6 -10h-4q-44 0 -62 5q-38 10 -38 41q0 29 15 64l29 68q-16 0 -49 -3t-49 -3q-13 0 -26.5 5.5t-13.5 16.5q0 9 12 18l40 44
q17 14 54 14q13 0 32.5 1t43.5 3q30 65 53 103q44 71 77 71q19 0 48 -26l4 -8q0 -21 -23 -66q-1 -3 -37 -66z" />
    <glyph glyph-name="comma" unicode="," horiz-adv-x="232" 
d="M58 138q14 7 29 13q23 9 31 9q11 0 16.5 -17t5.5 -33q0 -22 -45 -77q-27 -33 -65 -71l-36 -12l47 67q27 43 27 77q0 21 -10 44z" />
    <glyph glyph-name="hyphen" unicode="-" horiz-adv-x="190" 
d="M-8 188q31 -5 65.5 -9.5t60.5 -4.5l34 2l2 -4q0 -19 -30.5 -40.5t-51.5 -21.5h-22q-31 0 -55 4t-27 14v8q9 29 14 39.5t10 12.5z" />
    <glyph glyph-name="period" unicode="." horiz-adv-x="232" 
d="M152 100q-9 -13 -29.5 -24.5t-34.5 -11.5q-10 0 -26 14.5t-16 25.5q0 14 15 25.5l29 22.5q6 6 10 6q8 0 38 -39q5 -6 14 -19z" />
    <glyph glyph-name="slash" unicode="/" horiz-adv-x="430" 
d="M448 602l-342 -564l-21 -32q-14 -18 -31 -18q-12 0 -12 6q0 5 2 8.5t4 7.5l290 564q21 39 45 53q14 9 67 23h8q8 0 8 -8q0 -11 -6 -21t-12 -19z" />
    <glyph glyph-name="zero" unicode="0" horiz-adv-x="420" 
d="M290 388q76 -29 76 -114q0 -97 -58 -180q-64 -91 -158 -100q-62 0 -99 39t-37 103q0 113 66 212q74 110 178 110q23 0 40.5 -9.5t17.5 -30.5q0 -12 -6 -18t-20 -12zM134 20q65 0 130 100q60 92 60 160q0 30 -16 60q-20 36 -48 36q-17 0 -51.5 -21t-48.5 -35
q-45 -37 -72.5 -90.5t-27.5 -109.5q0 -38 17 -66q21 -34 57 -34z" />
    <glyph glyph-name="one" unicode="1" horiz-adv-x="284" 
d="M204 400q-13 -8 -44 -31q-52 -40 -80 -45q-16 0 -16 18q0 17 16 30q7 5 32 18q39 15 67 28q38 18 63 36l10 6q11 0 14 -6v-4l-4 -10l-16 -38l-70 -182q-40 -109 -52 -188q-4 -20 -10 -24.5t-19 -6.5l-35 -5.5t-30 -3.5q-22 0 -22 12q0 26 42 112q27 56 87 164z" />
    <glyph glyph-name="two" unicode="2" horiz-adv-x="388" 
d="M346 74q-11 -29 -23 -49q-21 -33 -39 -33q-22 0 -66 11t-68 11q-33 0 -62.5 -2t-57.5 -8l-30 -6q-16 0 -16 10q0 44 37 67q31 19 77 19q75 60 104 93q58 65 58 121q0 41 -27.5 69.5t-68.5 28.5q-29 0 -49.5 -16.5t-26.5 -45.5q24 -3 24 -24q0 -31 -4 -44q-8 -26 -32 -26
q-15 0 -24.5 10t-11.5 26q0 71 56.5 120.5t129.5 49.5q51 0 85 -21q41 -26 41 -73q0 -61 -80 -147q-37 -40 -132 -121q32 0 76 -6q102 -14 130 -14z" />
    <glyph glyph-name="three" unicode="3" horiz-adv-x="398" 
d="M260 444q34 0 63 -19.5t29 -52.5q0 -40 -49 -70t-49 -46q0 -5 51 -56q25 -25 25 -50q0 -69 -74 -117q-66 -43 -140 -43q-48 0 -89 19q-53 25 -53 67q0 21 7 40.5t23 23.5q13 0 16 -8q0 -8 -6 -23t-6 -23q0 -30 30 -46t62 -16q44 0 81 18q47 23 47 62q0 26 -36 58t-36 58
q0 31 55 60t55 62q0 21 -16.5 36.5t-37.5 15.5q-43 0 -74 -42t-38 -42q-12 0 -12 10q0 16 13 35q9 13 25 29q27 27 62 43.5t72 16.5z" />
    <glyph glyph-name="four" unicode="4" horiz-adv-x="440" 
d="M416 186q-31 -42 -68 -50l-76 -10l-34 -86q-11 -32 -28.5 -40t-57.5 -8q-12 0 -12 8q0 17 20 61l30 63q-21 0 -63 -3t-61 -3q-39 0 -62 6t-26 20q0 23 84 102q76 71 166 138q94 70 118 70q30 0 30 -34q0 -14 -5 -29t-13 -33l-64 -176q20 0 61 2t61 2zM212 182l64 164
l6.5 17.5t3.5 16.5q0 8 -8 8q-23 -3 -106 -79.5t-90 -104.5q0 -16 19 -19t29 -3h82z" />
    <glyph glyph-name="five" unicode="5" horiz-adv-x="388" 
d="M394 450q-27 -46 -29 -49q-11 -15 -22.5 -22.5t-30.5 -10t-44 -2.5q-16 0 -48 1t-48 1l-19 -42t-9 -26t92 -23t92 -87q0 -76 -81 -139q-76 -59 -153 -59q-46 0 -79 17q-43 22 -43 63q0 26 11.5 55t32.5 29q12 0 12 -10q0 -7 -9 -23t-9 -27q0 -34 41 -55q33 -17 71 -17
q43 0 80.5 32.5t37.5 75.5t-43 72l-95 56q0 10 5 21t7 15l72 148q14 0 41 -1t39 -1q72 0 128 8z" />
    <glyph glyph-name="six" unicode="6" horiz-adv-x="378" 
d="M78 206q38 36 72 54q42 22 88 22q44 0 72 -25t28 -67q0 -76 -53 -137t-129 -61q-66 0 -103 45t-37 111q0 94 78 200q84 114 174 114q22 0 41 -13t19 -35q0 -18 -15 -25t-37 -7q-63 -6 -123 -60t-75 -116zM182 232q-47 0 -82.5 -34.5t-35.5 -81.5q0 -41 25.5 -69.5
t66.5 -28.5q44 0 79 41t35 87q0 38 -24 62t-64 24z" />
    <glyph glyph-name="seven" unicode="7" horiz-adv-x="304" 
d="M24 370q0 45 21 68.5t65 23.5q35 0 105 -3t105 -3h20q14 0 14 -6t-7 -12.5t-13 -11.5q-83 -77 -135 -159q-67 -105 -67 -195q0 -44 -13.5 -61t-38.5 -17q-21 0 -35.5 13.5t-14.5 34.5q0 48 63 141.5l129 188.5q0 13 -20.5 17.5t-47.5 4.5q-37 0 -66.5 -5t-63.5 -19z" />
    <glyph glyph-name="eight" unicode="8" horiz-adv-x="420" 
d="M272 242q52 -18 70 -37.5t18 -46.5q0 -70 -64 -119q-59 -45 -130 -45q-59 0 -108 32q-56 37 -56 92q0 59 49 95q39 28 105 39q-50 31 -50 82q0 49 39.5 84.5t88.5 35.5q53 0 90 -21q46 -26 46 -75q0 -42 -29 -73q-25 -26 -69 -43zM252 434q-35 -4 -54.5 -46.5
t-19.5 -83.5q0 -22 11 -36t31 -14q40 0 62 47q18 38 18 83q0 21 -11 36.5t-31 15.5zM190 236q-44 0 -72 -46q-24 -40 -24 -90q0 -32 17.5 -57t48.5 -25q46 0 78 47q28 41 28 89q0 34 -20.5 58t-55.5 24z" />
    <glyph glyph-name="nine" unicode="9" horiz-adv-x="388" 
d="M282 250q-42 -35 -74 -52q-44 -24 -86 -24q-45 0 -72.5 28.5t-27.5 73.5q0 69 54.5 128.5t123.5 59.5t108 -45q36 -42 36 -111q0 -97 -77 -200q-83 -112 -177 -112q-23 0 -40.5 11t-17.5 33q0 18 13.5 26t34.5 10q69 6 124.5 55.5t77.5 118.5zM198 438
q-43 -4 -75.5 -40.5t-32.5 -79.5q0 -41 22 -66.5t62 -25.5q49 0 84.5 31.5t35.5 80.5q0 41 -23 71.5t-63 30.5z" />
    <glyph glyph-name="colon" unicode=":" horiz-adv-x="232" 
d="M152 100q-9 -13 -29.5 -24.5t-34.5 -11.5q-10 0 -26 14.5t-16 25.5q0 14 15 25.5l29 22.5q6 6 10 6q8 0 38 -39q5 -6 14 -19zM152 234q-6 -11 -28.5 -24.5t-35.5 -13.5q-9 0 -25.5 15.5t-16.5 26.5q0 14 15 25.5l29 22.5l10 6q10 0 17 -12q13 -22 21 -30l9.5 -7.5
t4.5 -8.5z" />
    <glyph glyph-name="semicolon" unicode=";" horiz-adv-x="232" 
d="M58 138q14 7 29 13q23 9 31 9q11 0 16.5 -17t5.5 -33q0 -22 -45 -77q-27 -33 -65 -71l-36 -12l47 67q27 43 27 77q0 21 -10 44zM118 234q-5 -11 -27 -23.5t-35 -12.5q-11 0 -26.5 15.5t-15.5 26.5q0 12 18 26l26 20q6 6 12 6q2 0 8 -6q6 -10 13 -20.5t15 -15.5
q12 -12 12 -16z" />
    <glyph glyph-name="less" unicode="&#x3c;" horiz-adv-x="504" 
d="M430 586v-90l-338 -158l338 -158v-88l-434 208v76z" />
    <glyph glyph-name="equal" unicode="=" horiz-adv-x="566" 
d="M196 420l238 14l72 4q28 0 28 -14q0 -4 -4 -16l-18 -28q-14 -27 -22.5 -32.5t-37.5 -5.5q-87 -9 -150.5 -13.5t-135.5 -4.5l-38 -2q-17 0 -27.5 4.5t-10.5 15.5t12 20q29 34 39 43q15 15 55 15zM136 272l238 16q12 0 36 2t36 2t20 -3t8 -13l-4 -16l-28 -47
q-15 -17 -50 -17q-144 -18 -286 -18q-2 0 -15 -2t-21 -2q-17 0 -21 1q-19 5 -19 21q0 8 12 20q28 32 37 41q15 15 57 15z" />
    <glyph glyph-name="greater" unicode="&#x3e;" horiz-adv-x="504" 
d="M80 92v90l338 156l-338 158v90l434 -210v-76z" />
    <glyph glyph-name="question" unicode="?" horiz-adv-x="336" 
d="M182 470l-36 -58q-40 4 -40 38q0 42 48 78t92 36q43 0 76 -21q40 -25 40 -67q0 -64 -100 -121t-100 -89q0 -17 12 -32l-58 -40q-12 18 -12 36q0 48 79 116t79 130q0 24 -15 40t-39 16q-17 0 -33.5 -12t-16.5 -28q0 -9 6 -13.5t18 -8.5zM200 100q-9 -13 -29.5 -24.5
t-34.5 -11.5q-10 0 -26 14.5t-16 25.5q0 14 15 25.5l29 22.5q6 6 10 6q7 0 15 -12q13 -21 23 -30q14 -9 14 -16z" />
    <glyph glyph-name="at" unicode="@" horiz-adv-x="754" 
d="M424 312l-87 -65q-74 -53 -93 -53q-24 0 -48 39t-24 65q0 79 130 149q116 63 200 63q26 0 43 -12t17 -30q0 -11 -18 -18l-14 -6q14 -7 21 -15t7 -19q0 -21 -41 -62t-41 -60q0 -12 9 -20t21 -8q52 0 99 65.5t47 122.5q0 82 -62 130q-57 44 -142 44q-141 0 -234.5 -90.5
t-93.5 -227.5q0 -113 63.5 -176.5t176.5 -63.5q70 0 154 34l136 74q7 0 15.5 -8t18.5 -16l10 -8q-79 -70 -166 -109t-168 -39q-128 0 -214 89t-86 221q0 159 102.5 266.5t253.5 107.5q116 0 201 -69t85 -165q0 -97 -89.5 -187.5t-180.5 -90.5q-18 0 -31 12t-13 30
q0 20 11 49q15 33 25 57zM472 424q-97 -27 -138 -45q-96 -43 -96 -95q0 -9 6.5 -16.5t15.5 -7.5q4 0 35.5 19l63.5 40t54.5 42t58.5 63z" />
    <glyph glyph-name="A" unicode="A" horiz-adv-x="922" 
d="M656 238q-53 -36 -126 -53t-146 -17q-48 0 -93.5 5t-90.5 17q-10 -16 -29 -39l-19 -23l-91 -112q-67 -70 -121 -70q-11 0 -20.5 7.5t-9.5 20.5q0 14 9 25q3 3 21 19q28 21 44 34l72 60l104 90q-23 10 -28 13q-18 11 -18 23q0 9 25 31l23 19q4 5 6.5 8.5t5.5 3.5t26 -13
q18 -10 38 -15l16 12l96 78q97 76 159 118q120 82 165 82q20 0 36.5 -11.5t25.5 -30.5q30 -58 50 -168l30 -176q9 -41 11 -46q11 -25 35 -28q20 0 52 14q10 4 50 26q4 0 6 -2q-12 -25 -83 -77q-77 -57 -115 -57q-53 0 -69 124l-23 230q-21 124 -86 124q-36 0 -102 -43
q-55 -36 -122 -93q-45 -38 -94 -86q63 -15 137.5 -20.5t156.5 -5.5z" />
    <glyph glyph-name="B" unicode="B" horiz-adv-x="912" 
d="M244 428q75 61 129 99q87 62 157 95q88 42 154 42q44 0 72 -19q34 -23 34 -67q0 -57 -65 -106l-153 -88q0 -6 12 -6h22q116 0 177 -17q103 -29 103 -107l-2 -34l22 -2q20 0 20 -10q0 -5 -5.5 -6.5t-14.5 -1.5h-28q-48 -107 -210 -183q-147 -69 -280 -69q-38 0 -73 13
q-47 18 -47 49q0 32 36 58q14 10 38 22q91 41 216.5 74.5t231.5 45.5q-9 25 -43 39q-42 17 -125 17h-78l-18 -2q-45 0 -65.5 12t-20.5 32q0 26 26 47q19 16 50 27q100 44 135 66q85 53 85 108q0 34 -25 57t-59 23q-88 0 -205 -103q-94 -82 -197 -223q-85 -116 -134 -210
q-11 -18 -15 -24q-11 -14 -23 -14q-27 0 -45.5 32.5t-18.5 61.5q0 52 71 132q50 57 115 108q31 62 41.5 98.5t10.5 67.5q0 41 -11 57q-19 18 -37 37l-2 4q0 8 8 8q31 0 50 -41q16 -34 16 -71q0 -29 -8.5 -60t-23.5 -68zM792 196q-59 -7 -148 -27q-123 -28 -203 -61
q-103 -43 -103 -86q0 -28 26 -42q19 -10 50 -10q58 0 126 23q53 18 118 53q54 27 86 53q50 40 50 79z" />
    <glyph glyph-name="C" unicode="C" horiz-adv-x="786" 
d="M590 552h18q11 0 34.5 -8t23.5 -18q-5 -12 -21 -25l-15 -11q-19 -15 -35 -29l-33 -33l-108 -106q-16 -16 -33 -26t-35 -10q-22 0 -36 15t-14 37q0 58 76 122q63 53 130 76l16 26q10 13 10 28q0 14 -10.5 19t-27.5 5q-52 0 -129 -30q-63 -24 -121 -60q-70 -44 -109 -97
q-47 -63 -47 -135q0 -107 119 -156q88 -36 225 -36q122 0 191 21q117 35 117 127v12q-1 1 -2 8q0 10 6 10q7 0 8.5 -8t1.5 -26q0 -124 -149 -194q-118 -56 -255 -56q-72 0 -126 9t-106 35q-58 29 -94 82.5t-36 115.5q0 106 72.5 190.5t200.5 144t239 59.5q29 0 49 -6.5
t23 -25.5q0 -11 -4.5 -20z" />
    <glyph glyph-name="D" unicode="D" horiz-adv-x="808" 
d="M740 460l14 -14q23 -32 34.5 -70t11.5 -76q0 -64 -31 -122.5t-86.5 -98t-121 -56.5t-137.5 -17q-58 0 -136 10q-172 22 -192 22q-29 0 -46.5 -3.5t-31.5 -14.5q-20 -11 -20 -36q0 -17 6 -26q17 -24 52 -33t84 -9q22 0 50.5 1.5t61.5 2.5q20 0 26 -6l-6 -12
q-26 -7 -57 -11.5t-63 -4.5q-54 0 -99.5 14t-66.5 44q-12 18 -12 40q0 33 28 72q24 33 54 55t62 30.5t68 8.5q17 0 54 -3t56 -3l116 -14q12 -1 59.5 -6.5t70.5 -5.5q45 0 83.5 9.5t72 33.5t53 64.5t19.5 84.5q0 28 -7.5 54.5t-22.5 47.5l-14 20q-33 -57 -90 -98
q-99 -70 -216 -70l-8 2q-64 0 -122 22q-66 25 -98 70q-15 21 -22.5 41t-7.5 41q0 34 19 69t49 59q84 60 200 60q50 0 99.5 -13t90.5 -39q13 10 32 10q35 0 60 -32q13 -17 20.5 -38.5t7.5 -43.5v-12zM694 472q-54 50 -133 84t-155 34q-42 0 -77 -9.5t-67 -32.5
q-36 -23 -36 -70q0 -24 16 -46q24 -34 73.5 -51t110.5 -17q64 0 128.5 17t101.5 43q13 9 23.5 21.5t14.5 26.5z" />
    <glyph glyph-name="E" unicode="E" horiz-adv-x="860" 
d="M722 644l6 -10q-122 -21 -228 -87.5t-156 -152.5q91 -14 197 -19t237 -5q-58 -37 -142 -52q-66 -12 -158 -12q-70 0 -111 3q-45 5 -67 7q-4 -13 -8 -27.5t-4 -26.5q0 -92 125 -148q107 -48 237 -48q72 0 129 30q63 33 63 84q0 16 6 16q9 0 14 -10q0 -89 -122 -150
q-108 -54 -230 -54q-133 0 -222 58q-94 62 -94 160q0 38 5.5 67t20.5 59q-119 17 -124 18q-94 19 -94 48q0 13 9 32q4 8 17 32q53 -19 110 -31t124 -19q67 92 194.5 159t265.5 79zM850 590q-9 -16 -16.5 -36t-7.5 -36q0 -8 7 -14t31 -14q-23 -9 -50 -11.5t-62 -2.5
q-23 0 -32.5 10.5t-9.5 31.5q5 54 19 76t35 22h64l6 -9q7 -10 16 -17z" />
    <glyph glyph-name="F" unicode="F" horiz-adv-x="660" 
d="M0 666q64 -27 149.5 -41.5t246.5 -14.5l68 2l24 40l34 6l-26 -46l92 -2h29h53q23 3 34 4q-12 -28 -19 -42q-12 -26 -30.5 -37t-136.5 -17q-42 -2 -82 -2l-74 -132q66 -27 154 -39q69 -9 160 -9q-39 -38 -87.5 -53t-110.5 -15q-39 0 -83.5 7.5t-86.5 20.5l2 -48
q0 -53 -9 -101.5t-29 -94.5q-31 -67 -62 -123q-56 -101 -74 -101q-28 0 -39 30q-7 19 -7 54q0 60 58 157l126 211q0 24 -32 38t-32 26q0 7 4 14.5l8 15.5q9 18 14 26q12 20 20 20q6 0 8 -2l37 -14.5t37 -11.5l70 122q-27 0 -82 -4t-82 -4q-87 0 -153 37q-77 43 -91 123z" />
    <glyph glyph-name="G" unicode="G" horiz-adv-x="724" 
d="M482 666q58 -45 93 -65q30 -17 63 -27q8 0 8 -8q0 -17 -19 -49q-22 -37 -43 -37q-33 0 -82 48t-80 48q-96 0 -165 -86q-65 -81 -65 -182q0 -69 41.5 -110.5t110.5 -41.5q57 0 111 21.5t107 60.5q49 57 75.5 80.5t62.5 23.5q22 0 22 -16q0 -31 -31 -96q-19 -40 -51 -94
q-87 -138 -222 -220q-142 -86 -298 -86q-78 0 -133 27q-71 35 -71 105q0 36 28.5 79.5t55.5 48.5q8 0 8 -6v-6q-30 -36 -30 -82q0 -64 60 -104q54 -36 120 -36q126 0 253 126q101 101 169 242q-64 -36 -103 -56q-58 -29 -112.5 -45.5t-110.5 -16.5q-76 0 -127 49t-51 123
q0 125 118 223q112 93 240 93q0 28 10.5 45t37.5 27z" />
    <glyph glyph-name="H" unicode="H" horiz-adv-x="1038" 
d="M538 256l-12 -82l-21 -81q-19 -60 -39 -65q-18 0 -18 26q0 31 26 97q17 43 24 69q2 12 6 20.5t6 13.5l-116 -20q-37 -70 -78 -127q-55 -77 -111 -121q-68 -54 -131 -54q-35 0 -59.5 21.5t-24.5 56.5q0 124 151 215q119 72 265 93l82 164q-17 -11 -35 -21.5t-35 -10.5
q-32 0 -55 27t-23 59l4 6l22 -2q36 0 88 48q31 32 41 41t14 13q9 8 15 8h4l24 -12q16 -8 27 -14q23 -13 23 -20q-1 -8 -10.5 -19.5l-17.5 -20.5q-36 -45 -72 -114q-22 -43 -58 -122l96 18q9 25 23.5 52t30.5 52q47 70 60 83q26 25 50 25h4q12 0 12 -16q0 -10 -17 -14
q-20 -3 -25 -4q-19 -6 -54 -59.5t-60 -114.5l112 22q23 40 61.5 85t88.5 89q60 54 119 87q66 37 113 37q18 0 31 -12t13 -30q0 -37 -25 -88q-21 -43 -51 -78q-66 -80 -158 -125q-80 -39 -194 -57q-5 -17 -8.5 -34.5t-3.5 -33.5q0 -82 67 -145t149 -63q56 0 97 45
q33 36 53 97q3 10 8 10q10 0 10 -12q-16 -81 -88 -157q-77 -81 -154 -81q-82 0 -137 57t-55 141q0 88 30 172q-20 -6 -56 -12zM712 380q88 15 139 29q91 26 145 64q68 48 68 113q0 17 -10.5 28.5t-27.5 11.5q-69 0 -175 -90q-92 -78 -139 -156zM360 232q-116 -13 -213 -59
q-133 -63 -133 -157q0 -25 17.5 -42.5t42.5 -17.5q75 0 169 103q76 84 117 173z" />
    <glyph glyph-name="I" unicode="I" horiz-adv-x="546" 
d="M178 162q-24 -24 -35 -42q-17 -27 -17 -54q0 -36 42.5 -64t81.5 -28q54 0 111 85l45 75q51 89 105 214q67 156 67 220q0 50 -81 69q-48 11 -133 11q-103 0 -155 -11q-76 -16 -112 -59q-43 -51 -43 -150q0 -20 10 -20l2 2q6 3 15 56q14 80 287 80q56 0 82 -14
q38 -20 38 -74q0 -96 -58 -219q-68 -145 -152 -145q-30 0 -57 22q-17 13 -43 46z" />
    <glyph glyph-name="J" unicode="J" horiz-adv-x="576" 
d="M590 198l-99 -62q-49 -33 -87 -70q-43 -42 -74 -92q-51 -82 -75 -111q-56 -65 -109 -65q-20 0 -34 12t-14 32q0 69 107 160q81 69 171 114q56 90 90 162q50 107 50 174q0 47 -32 68.5t-82 21.5q-86 0 -164 -7.5t-122 -30.5q-33 -17 -46 -52l-10 -32q-8 0 -9 5.5t-1 8.5
q0 135 70 175q48 27 194 27q86 0 149 -5.5t99 -26.5q14 -9 22 -20.5t8 -27.5q0 -52 -30 -136q-24 -67 -67 -154q-33 -67 -69 -130q31 14 76.5 32t85.5 32z" />
    <glyph glyph-name="K" unicode="K" horiz-adv-x="808" 
d="M724 632q23 0 42 -3q21 -5 42 -9l18 -7t10 -11q0 -25 -48.5 -61.5t-85.5 -44.5q-3 -1 -10 -3t-20 -7q-83 -44 -187 -84q-81 -31 -195 -66q64 -23 142 -101l128 -129q75 -64 142 -64q39 0 70.5 27.5t31.5 66.5q0 5 -3 15t-3 16q0 11 6 11q9 0 12.5 -14t3.5 -30
q0 -67 -60 -113q-56 -43 -126 -43q-106 0 -192 85q-20 19 -123 157q-65 86 -115 86l-14 -22l-62 -104l-70 -110q-6 -9 -13 -18t-17 -10q-20 0 -20 16q0 9 3 16q6 9 9 14q30 47 63 107q26 46 59 111l-48 -12q-6 0 -6 8q3 13 31 23q7 3 41 11q31 67 72 144.5l80 145.5
q15 23 41.5 31.5t62.5 8.5q20 0 22 -12q0 -9 -26 -48q-10 -16 -42 -60l-132 -194q20 -5 26 -8q180 71 198 79q50 21 116 55l21 10q16 9 17 18q-8 10 -8 18q0 6 8 12.5t10 7.5q26 17 52 41z" />
    <glyph glyph-name="L" unicode="L" horiz-adv-x="766" 
d="M326 440q62 0 117 24t91 70l53 74q19 20 37 20q27 0 42 -30q12 -24 12 -56q0 -72 -75 -119q-65 -41 -141 -41q-34 -46 -87 -98l-97 -90q116 -69 195 -96q70 -24 127 -24q67 0 116.5 40t49.5 104l-2 34q0 8 8 8q5 -2 8.5 -9t3.5 -23v-14q0 -92 -95 -159q-87 -61 -183 -61
q-82 0 -197 62l-111 62q-29 -25 -54 -39q-35 -19 -64 -19q-32 0 -54 21t-22 53q0 49 41.5 77.5t92.5 28.5q31 0 64 -11q24 -8 60 -27q39 37 79 86q48 59 67 96q-52 9 -82 56zM180 130q-35 23 -54 32q-33 16 -60 16q-19 0 -32.5 -16.5t-13.5 -35.5q0 -22 17 -37t39 -15
q26 0 56 18q21 13 48 38z" />
    <glyph glyph-name="M" unicode="M" horiz-adv-x="1164" 
d="M116 500l29 63q23 39 51 39q44 0 77 -28t33 -72q0 -57 -84 -205q-51 -86 -66 -113h6l129 152q90 103 162 158q97 74 175 74q28 0 49 -18.5t21 -45.5q0 -61 -44 -161q-17 -39 -78 -155h4l36 44l66 84q53 67 121 128q96 86 151 86q78 0 105 -192q12 -111 16 -144t10 -48
q12 -30 37 -30q18 0 35.5 8.5t38.5 23.5l4 -2q-44 -52 -75 -79q-56 -49 -93 -49q-19 0 -32 12t-20 32q-10 44 -15.5 109.5l-8.5 100.5q0 75 -9 119q-17 83 -63 83q-30 0 -99 -79q-46 -53 -123 -161l-90 -128q-22 -30 -27 -35q-29 -33 -63 -33q-18 0 -29 5q-17 8 -17 23
q0 30 52 111q86 135 97 154q53 95 53 155q0 23 -13.5 37.5t-36.5 14.5q-66 0 -158 -97q-69 -73 -156 -205q-37 -56 -110 -180q-19 -32 -35 -46q-23 -20 -53 -20q-23 0 -37.5 9t-14.5 29q0 39 59 128l109 162q60 96 60 148q0 24 -19.5 37t-46.5 13q-16 0 -32 -4t-38 -12z" />
    <glyph glyph-name="N" unicode="N" horiz-adv-x="796" 
d="M128 514q25 59 28 64q22 36 56 36q41 0 75.5 -31.5t34.5 -72.5q0 -57 -87 -201l-69 -111h6l117 135q77 84 147 135q87 64 158 70q77 0 104 -103q7 -27 24 -195q11 -107 48 -112q21 0 40 8.5t42 23.5l2 -2q-29 -42 -72 -81q-55 -49 -92 -49q-25 0 -41 16.5t-19 45l-6 55.5
t-8 63l-16 162q0 47 -9 77q-15 49 -49 49q-45 0 -117 -75q-54 -56 -124 -156q-34 -48 -89 -133l-54 -83q-38 -47 -82 -47q-26 0 -37 3q-23 6 -23 25q0 20 18 51q11 19 32 47l60 88q66 95 83 124q53 88 53 132q0 25 -18 38.5t-46 13.5q-30 0 -70 -10z" />
    <glyph glyph-name="O" unicode="O" horiz-adv-x="808" 
d="M484 576q48 12 98 12q91 0 153 -49q67 -53 67 -143q0 -72 -43 -149q-37 -67 -97 -123q-64 -61 -147.5 -96.5t-168.5 -35.5q-125 0 -212 61q-100 70 -100 191q0 79 33 150.5t93 129.5q52 52 108 84q70 40 132 40q39 0 56.5 -16t27.5 -56zM164 238l-10 2q4 45 24 89
q17 37 48 79q46 65 108 104q52 33 138 60q-9 31 -25.5 44.5t-48.5 13.5q-44 0 -92 -28q-42 -24 -76 -62q-42 -48 -64 -108t-22 -124q0 -118 83 -180q75 -56 197 -56q32 0 69 8t71 20q69 25 128 89q66 72 66 141q0 82 -65 127q-57 39 -145 39q-130 0 -236 -67
q-115 -72 -148 -191z" />
    <glyph glyph-name="P" unicode="P" horiz-adv-x="1006" 
d="M322 662q12 -27 19 -52t7 -50q0 -30 -15 -50.5t-45 -37.5l-78 -184l24 22q125 118 163 151q101 86 185 129q106 54 210 54q82 0 143 -41q69 -47 69 -127q0 -169 -168 -294q-155 -116 -330 -116q-69 0 -130.5 15t-111.5 51q-16 12 -24 21q-12 14 -12 27q0 16 10 29t26 13
q26 0 50 -21t24 -47q4 -42 51 -57q29 -9 87 -9q152 0 276 90q61 45 101 100q49 67 49 130q0 29 -6.5 52.5t-23.5 41.5q-56 56 -132 56q-91 0 -175 -34t-161 -96q-72 -59 -113 -96q-55 -50 -105 -106q-34 -104 -54 -155q-32 -81 -70 -149q-20 -36 -29 -46q-22 -26 -47 -26
t-45.5 15.5t-20.5 38.5q0 39 62.5 125t179.5 207l90 220q-22 -14 -43 -21t-45 -7q-33 0 -57 24q-19 19 -33 54l15.5 -5t16.5 -3q48 0 120 61q57 49 96 103z" />
    <glyph glyph-name="Q" unicode="Q" horiz-adv-x="808" 
d="M486 576q48 12 98 12q91 0 152 -49q66 -53 66 -143q0 -60 -28 -121.5t-72 -110.5l30 -28q20 -16 36 -16q20 0 36 16q4 8 10 8l4 -2l4 -4q0 -4 -3.5 -8.5t-14.5 -15.5l-41 -44q-30 -28 -53 -28q-22 0 -49 30l-23 26q-70 -49 -137 -75q-79 -31 -153 -31q-124 0 -212 62
q-100 70 -100 190q0 79 33 150.5t93 129.5q52 52 108 84q70 40 132 40q39 0 56.5 -16t27.5 -56zM166 238l-10 2q4 45 24 89q17 37 48 79q46 65 108 104q52 33 138 60q-9 31 -25.5 44.5t-48.5 13.5q-44 0 -92 -28q-42 -24 -76 -62q-42 -48 -64 -108t-22 -124q0 -118 83 -180
q75 -56 197 -56q46 0 93.5 13t90.5 35q-18 16 -35 33q-26 27 -29 39q0 11 10 22q4 5 20 18l10 10q15 10 18 10q5 0 10 -2.5t12 -9.5l58 -60q34 34 53 68q23 41 23 82q0 82 -65 127q-57 39 -145 39q-130 0 -236 -67q-115 -72 -148 -191z" />
    <glyph glyph-name="R" unicode="R" horiz-adv-x="986" 
d="M214 404l-14 -2q-23 0 -53.5 30.5t-30.5 53.5q0 12 10 12q7 0 20 -4t18 -4q55 0 155 97q37 35 73 77q7 -10 10.5 -22.5t3.5 -27.5q0 -59 -40 -111q-22 -28 -88 -85q-61 -52 -84 -86l-64 -90q-15 -20 -23 -32q-17 -25 -17 -36l4 -4q19 0 76 43l40 31l130 98q83 64 158 116
q117 81 208 131q115 63 170 63q35 0 55.5 -22.5t20.5 -57.5q0 -111 -128 -189q-113 -69 -232 -69l-30 2q-11 0 -14 -6q0 -12 24 -44q18 -24 36 -42q77 -98 138 -135q54 -33 110 -33q52 0 90 34t38 86q0 8 -3 24t-3 22q0 10 6 10q10 0 14 -18q3 -21 4 -26q0 -84 -58.5 -132
t-145.5 -48q-100 0 -183 51q-77 47 -135 137q-10 13 -31 49q-13 23 -13 27q0 12 16 20q27 15 54 28.5t34 13.5l20 -2q104 0 178 31q102 43 102 133q0 34 -20 56t-54 22q-54 0 -148 -59q-78 -49 -168 -128q-74 -65 -124 -121l-84 -90q-47 -52 -87 -88q-67 -60 -101 -60
q-36 0 -42 32q0 39 50 115l42 61l66 92l26 40q18 28 18 36z" />
    <glyph glyph-name="S" unicode="S" horiz-adv-x="776" 
d="M654 628q12 6 22 6q22 0 28 -27.5t24 -42.5q6 -3 6 -10q-1 -5 -4.5 -8.5l-5.5 -5.5q-14 -11 -33 -34t-25 -36.5t-10 -13.5q-11 0 -24 12q-17 16 -25.5 18.5t-20.5 5.5q-16 6 -16 16q0 15 28 56q14 20 14 36q0 24 -21 32t-49 8q-54 0 -102.5 -13.5t-89.5 -44.5
q-35 -26 -54 -55q-24 -36 -24 -73q0 -49 50 -71q35 -15 94 -15q22 0 67 4t69 4q99 0 143 -15q79 -27 79 -105q0 -67 -52 -137q-39 -53 -108 -107q-158 -128 -364 -128q-106 0 -176 37q-90 48 -90 145q0 62 41.5 110.5t102.5 63.5l4 -12q-60 -24 -79 -48.5t-19 -57.5
q0 -95 112 -134q74 -26 192 -26q85 0 162.5 26.5t143.5 79.5q40 33 54 58t14 50q0 56 -70 69q-28 5 -70 5q-27 0 -80 -4t-80 -4q-87 0 -141 35q-65 42 -65 125q0 121 113 194q99 64 227 64q41 0 64.5 -5t43.5 -27z" />
    <glyph glyph-name="T" unicode="T" horiz-adv-x="670" 
d="M484 654l48 8q-30 -33 -54 -72q77 -10 146.5 -20t73.5 -18v-4q0 -15 -11.5 -27.5t-26.5 -12.5q-15 2 -40 3t-50 1h-14l-140 -2q-60 -80 -83 -121q-45 -79 -45 -137q0 -64 54 -100q48 -32 114 -32t108 10q60 14 96 52q4 8 12 8q4 0 4 -6q0 -11 -10.5 -22l-19.5 -20
q-62 -64 -110 -91q-61 -35 -136 -35q-82 0 -138 39q-64 45 -64 123q0 76 61 176q28 46 113 156q-83 0 -165.5 -8t-188.5 -24l-8 -2q-8 0 -8 8q0 9 6 16l12 14q59 61 62 63q30 25 124 25q63 0 119.5 -2t110.5 -8z" />
    <glyph glyph-name="U" unicode="U" horiz-adv-x="880" 
d="M20 454q52 0 138 74q71 61 112 120q8 8 12 8q4 -1 10 -18.5t6 -33.5v-14q0 -65 -41 -113q-32 -38 -99 -73q-34 -16 -65 -67t-31 -91q0 -58 48 -90q42 -28 104 -28q126 0 232 60q98 56 178 162q9 13 19 26q19 29 19 50l-2 10q0 27 6 40.5t16 19.5q23 14 32 18q21 10 38 10
q7 -1 9.5 -11.5t2.5 -24.5v-10l8 -160v-23q0 -54 7 -83q12 -48 43 -48q26 0 64 25l34 23l2 -6q-58 -52 -91 -77q-70 -53 -103 -53q-28 0 -42 37t-14 107q0 37 -3 93t-3 57q-31 -43 -62 -80q-72 -80 -124 -124q-74 -63 -145 -96q-83 -38 -171 -38q-65 0 -110 24
q-56 30 -56 90q0 64 58 165q20 34 56 87h-20q-25 0 -43.5 15.5t-28.5 40.5z" />
    <glyph glyph-name="V" unicode="V" horiz-adv-x="996" 
d="M158 468q-30 4 -52.5 25.5t-31.5 52.5q0 10 6 10q4 0 12 -5t14 -5q46 0 128 60l66 52q1 1 5.5 4.5t6.5 3.5l4 -2q12 -14 20 -35.5t8 -40.5q0 -50 -65 -79q-94 -42 -101 -49q-25 -24 -43.5 -61.5t-18.5 -68.5q0 -36 23 -77q8 -15 47 -69q69 118 149 212q99 117 199 178
q121 74 246 74q92 0 159 -50q75 -56 75 -144q0 -161 -172 -298q-163 -130 -330 -130q-46 0 -109 23q-77 28 -77 65q0 12 9 22t21 10q20 0 44 -16.5t24 -35.5q0 -23 37 -36q28 -10 51 -10q144 0 270 102q134 109 134 250q0 79 -63 122q-56 38 -139 38q-113 0 -217 -59
q-93 -53 -172 -147q-67 -80 -125 -192q19 -33 29.5 -68.5t10.5 -71.5q0 -31 -10 -53q-13 -29 -40 -29q-28 0 -43 30q-11 23 -11 56q0 29 10 62q-33 37 -54 74q-26 47 -26 86q0 57 28 117q19 40 64 103z" />
    <glyph glyph-name="W" unicode="W" horiz-adv-x="1394" 
d="M112 538l30 -6q51 0 124 42q61 35 102 76q4 5 6 6l4 2q5 0 7.5 -12t2.5 -24q0 -84 -54 -127l-86 -59l-8 -8q-43 -45 -66 -77q-42 -57 -42 -89q0 -25 19.5 -41.5t44.5 -16.5q42 0 178 98l96 70q22 47 46 85.5t58 82.5q22 25 28 30q20 18 38 18q30 0 30 -30q0 -40 -41 -84
q-28 -30 -77 -62q-16 -34 -21 -47q-15 -35 -17 -47q0 -26 46 -91q23 -32 68 -87q16 75 44.5 140.5t73.5 125.5q80 108 185 175q120 77 239 77q101 0 171 -54q77 -59 77 -156q0 -155 -160 -282q-151 -120 -310 -120q-49 0 -88 10q-64 16 -64 52q0 14 11 26t27 12q8 0 12 -2
q25 -10 36 -15q18 -9 22 -17q8 -18 25 -28.5t39 -13.5q129 0 242 92q120 98 120 224q0 87 -64 134q-57 42 -148 42q-184 0 -325 -141t-141 -323q22 -31 36 -70.5t14 -77.5q0 -22 -3 -34q-6 -22 -21 -22q-29 0 -46.5 55t-17.5 93v14q-73 62 -107 96q-77 77 -77 112
q0 18 8.5 39t17.5 41q-60 -50 -104 -83q-72 -54 -136 -89q-76 -42 -118 -42q-19 0 -34.5 11.5t-15.5 30.5q0 28 15 58q6 12 59 84l72 96l24 32l-20 -2q-40 0 -60.5 27.5t-25.5 70.5z" />
    <glyph glyph-name="X" unicode="X" horiz-adv-x="660" 
d="M710 656q-34 -38 -60 -89q-30 -60 -30 -105q0 -26 14 -46l-16 -2q-37 0 -60 13t-34 49l-42 -41q-25 -24 -44 -39l-94 -78l-12 -10q0 -107 31 -203q43 -135 127 -135q51 0 97 42l75 92q6 0 8 -6t2 -8q-3 -7 -15 -25l-31 -43q-31 -38 -69 -61q-44 -27 -87 -27
q-103 0 -165 108q-42 74 -65 200q-5 -5 -12.5 -10.5t-13.5 -9.5l-100 -70l-126 -92q-36 -26 -59.5 -41t-30.5 -15q-12 0 -12 12q0 28 19 48q13 14 43 30q21 11 49 28l47 30l118 78q18 11 37 24t35 26q-8 80 -8 182q0 49 22 73.5t70 32.5q13 0 18.5 -4t5.5 -18l-2 -30
q-6 -38 -8 -78.5t-2 -87.5q55 45 102.5 89.5t91.5 92.5q18 79 46.5 102.5t109.5 23.5q20 0 30 -2z" />
    <glyph glyph-name="Y" unicode="Y" horiz-adv-x="650" 
d="M528 162q39 88 52 124q30 82 30 128q0 12 -4 22t-14 10q-9 0 -74 -49q-79 -59 -136 -91q-90 -50 -154 -50q-62 0 -101 34t-39 94q0 67 63.5 170.5t106.5 103.5q28 0 28 -26q0 -22 -18 -41t-40 -19q-31 -3 -52.5 -33t-21.5 -63q0 -61 43.5 -99.5t104.5 -38.5q66 0 127 28
q50 23 109 72q35 29 96 90q47 47 59 56q26 20 43 20q13 0 19.5 -9t6.5 -23q0 -48 -35 -132q-29 -69 -77 -155q-34 -61 -76 -125q40 0 82 -6q10 -5 10 -10q-3 -8 -10 -8q-15 0 -45 4t-45 4q-74 -116 -195 -193q-131 -83 -259 -83q-48 0 -90 21q-52 26 -52 71q0 78 111 129
q86 40 230 60q107 15 193 15zM520 146q-209 0 -353 -45q-131 -41 -131 -109q0 -42 43 -61q33 -15 85 -15q112 0 208 67q85 59 148 163z" />
    <glyph glyph-name="Z" unicode="Z" horiz-adv-x="786" 
d="M602 386q33 39 53 66q35 49 35 74q0 20 -23 31t-85 11q-82 0 -137.5 -3.5t-131.5 -15.5t-126 -51l-64 -78q-7 0 -7 8q0 71 10 105q16 57 63.5 81t118 36t134.5 12h76q38 0 73.5 -0.5t87.5 -7t63 -9.5q51 -14 54 -41q0 -38 -64 -116l-96 -110q11 -3 19 -4.5t9 -1.5l20 2h8
l2 -4q0 -7 -7.5 -15l-10.5 -11q-17 -21 -31 -31q-20 -15 -41 -15q-7 0 -20 4t-20 4q-14 -10 -35 -31q-57 -56 -65 -63q167 -26 207 -36q71 -18 101 -44q7 -7 9.5 -16.5t2.5 -21.5q0 -39 -3 -85.5t-15 -46.5q-6 0 -6 10q-3 25 -18 42t-40 30q-42 24 -115 46q-87 27 -213 50
q-70 -62 -146 -106q-98 -56 -170 -56q-31 0 -54.5 19.5t-23.5 48.5q0 85 111 139q92 45 187 45q36 0 76 -3.5t84 -10.5l63 58q20 20 37 40q-17 5 -34 11q-22 9 -22 23q2 13 18.5 40t25.5 28q13 0 26 -10l20.5 -8.5zM350 148q-58 12 -91.5 16t-58.5 4q-71 0 -125 -24
q-70 -31 -77 -92q0 -26 20 -40t48 -14q64 0 151 51q68 40 133 99z" />
    <glyph glyph-name="bracketleft" unicode="[" horiz-adv-x="398" 
d="M104 -40q18 0 55 3t55 3q24 0 24 -8q0 -5 -6 -14l-8 -18q-16 -38 -56 -38l-82 2q-12 0 -42 -2t-32 -2q-26 0 -26 16q0 12 6 30q38 105 77 224l73 226l72 226q16 49 31.5 68.5t36.5 19.5q26 0 61 -3q83 -7 103 -7h4q22 0 22 -14q0 -30 -22.5 -46t-85.5 -16h-38
q-16 -24 -21 -34t-13 -36l-60 -193l-62 -193z" />
    <glyph glyph-name="backslash" unicode="\" horiz-adv-x="430" 
d="M14 574l292 -564q6 -12 6 -14q0 -8 -8 -8q-20 0 -34 16q-1 1 -22 34l-342 564l-16 26q-4 8 -4 10q0 12 8 14l10 -2q50 -14 65 -23q26 -15 45 -53z" />
    <glyph glyph-name="bracketright" unicode="]" horiz-adv-x="398" 
d="M262 612q-26 0 -49.5 -2t-56.5 -4q-28 0 -28 8l4 14l18 34q13 22 46 22l84 -2q12 0 36 2t38 2q26 0 26 -16q0 -11 -53 -173l-105 -316l-72 -215q-15 -50 -30 -70t-38 -20q-55 0 -99 3q-91 6 -91 21q0 30 24 46t90 16h32q16 22 22 34q2 5 14 38q48 157 60 193l62 193z" />
    <glyph glyph-name="asciicircum" unicode="^" horiz-adv-x="504" 
d="M132 356h-96l172 314h118l172 -314h-96l-136 242z" />
    <glyph glyph-name="underscore" unicode="_" horiz-adv-x="504" 
d="M-192 -60h502v-82h-502v82z" />
    <glyph glyph-name="grave" unicode="`" horiz-adv-x="504" 
d="M186 422q15 0 26.5 -7t11.5 -21l-2 -12q0 -22 16 -41t38 -29l10 -6q0 -6 -6 -6q-36 0 -79 25q-49 28 -49 61q0 15 9.5 24.5t24.5 11.5z" />
    <glyph glyph-name="a" unicode="a" horiz-adv-x="398" 
d="M262 276q29 0 40 -21q8 -15 8 -49v-10q0 -10 -2 -38.5t-2 -31.5q0 -25 5.5 -40t20.5 -16l22 -2q15 0 23.5 4.5t28.5 21.5l4 -4q-46 -56 -76 -74t-62 -18q-30 0 -30 40q0 19 8 62t8 56v8q-42 -55 -95 -101q-72 -63 -117 -63q-25 0 -39.5 16.5t-14.5 43.5q0 81 72.5 148.5
t145.5 67.5h52zM242 248h-12q-48 0 -84 -25q-42 -29 -42 -79q0 -18 11.5 -32.5t28.5 -17.5q33 0 63 28q18 17 47 58v36q0 8 -1.5 19t-10.5 13z" />
    <glyph glyph-name="b" unicode="b" horiz-adv-x="336" 
d="M346 164q-14 -5 -41 -10t-41 -8q0 -58 -40 -104t-98 -46q-41 0 -77 25q-41 28 -41 67q0 38 51 146.5t105 195.5q59 96 78 98q12 0 16 -19t4 -47q0 -68 -51 -133q-15 -19 -95 -96q-52 -50 -52 -81q0 -27 56 -59q51 -29 82 -29q27 0 43 25q13 21 13 49q-1 1 -2 8
q-31 0 -52 5q-38 9 -38 29q0 13 13 33l13 19q4 9 9 14.5t13 5.5q18 0 43 -25q60 -59 89 -63z" />
    <glyph glyph-name="c" unicode="c" horiz-adv-x="304" 
d="M308 118q-59 -46 -110 -78q-81 -50 -122 -50q-31 0 -54.5 26.5t-23.5 57.5q0 53 41 95q31 32 89 57q28 11 54 19q37 11 60 11q16 0 26.5 -5t11.5 -19q0 -24 -24 -24q-11 0 -51 12q-20 6 -33 6q-33 0 -59.5 -25.5t-26.5 -60.5q0 -30 20 -51t50 -21q37 0 73.5 14.5
t74.5 39.5z" />
    <glyph glyph-name="d" unicode="d" horiz-adv-x="472" 
d="M486 116q-62 -68 -75 -80q-53 -48 -95 -48q-34 0 -55 22t-21 56q0 21 4.5 42l7.5 34l-88 -92q-62 -56 -108 -56q-25 0 -41.5 21.5t-16.5 48.5q0 88 83 146q75 52 167 52q7 0 10 -6l-6 -6q-54 0 -103 -26q-59 -31 -59 -80q0 -22 15 -38t37 -16q31 0 66 24q1 1 56 46
q25 73 65 151q37 72 83 143l26 38q21 27 36 30q13 0 16.5 -17t3.5 -39q0 -56 -24 -101q-20 -37 -66 -83l-66 -65q-48 -51 -48 -73q0 -33 40 -55q34 -19 70 -19q16 0 31 8.5t51 41.5z" />
    <glyph glyph-name="e" unicode="e" horiz-adv-x="378" 
d="M390 116l8 -8q-64 -46 -125 -76q-88 -44 -147 -44q-50 0 -89 23.5t-39 60.5q0 76 84.5 139t183.5 63q22 0 36 -7.5t14 -24.5q0 -21 -21 -42q-16 -16 -45 -32q-40 -20 -93 -30q-31 -6 -99 -12q0 -32 65 -50q50 -14 103 -14q30 0 67.5 11t96.5 43zM60 142q52 0 93 10
q61 15 61 46q0 10 -10 19t-24 9q-41 0 -74.5 -26t-45.5 -58z" />
    <glyph glyph-name="f" unicode="f" horiz-adv-x="304" 
d="M302 198q-32 -26 -69 -36t-87 -10h-22l-8 -16q4 -16 8 -36t4 -36q0 -65 -18 -131.5t-50 -130.5q-9 -18 -15 -28q-12 -20 -25 -20q-18 0 -24 19.5t-6 40.5q0 79 27 166q21 68 65 156l-8 16h-24q-22 0 -37 3.5t-15 14.5v4q3 7 25 22.5t29 15.5q10 0 30 -6t32 -6
q72 163 116.5 255.5t63.5 98.5l4 2q12 0 15 -12t3 -30v-64q0 -87 -64 -144q-83 -74 -98 -112q12 -1 24.5 -1.5t25.5 -0.5q50 0 98 6z" />
    <glyph glyph-name="g" unicode="g" horiz-adv-x="420" 
d="M240 234q17 26 19 28q14 16 29 16q26 0 26 -24q0 -11 -5 -22.5t-13 -25.5q15 -17 24.5 -36.5t9.5 -39.5q0 -21 -9.5 -46l-18.5 -48l128 80l2 -4l-158 -142q-14 -52 -77 -137q-69 -94 -111 -101q-16 0 -23 12.5t-9 31.5q0 47 44 89l66 63q41 39 70 60q32 29 34 31
q10 13 10 27q0 45 -34 76h-18l-81 -80q-52 -44 -103 -44q-22 0 -38 16t-16 38q0 75 70 129.5t146 54.5q24 0 36 -2zM238 228h-16q-45 0 -78 -19q-40 -23 -44 -65q0 -26 12.5 -42t37.5 -16q21 0 37 11t31 31q-8 16 -8 26q0 19 7 36.5t21 37.5z" />
    <glyph glyph-name="h" unicode="h" horiz-adv-x="472" 
d="M474 114l2 -4l-81 -79q-58 -51 -93 -51q-45 0 -51 90t-31 94q-21 0 -92 -80t-102 -80q-14 0 -22 16.5t-8 49.5q0 31 57.5 147.5t115.5 209.5q66 106 85 109q9 0 14.5 -8.5t5.5 -17.5q2 -8 2 -22q0 -80 -65 -157l-147 -165q0 -25 11 -46t33 -24q29 0 89 71t95 71
q32 0 36 -90t34 -90q23 0 58 20q18 10 54 36z" />
    <glyph glyph-name="i" unicode="i" horiz-adv-x="252" 
d="M266 112l-90 -74q-60 -44 -102 -44q-31 0 -52.5 25t-21.5 57q0 29 13 56.5t34 53l41 50.5q30 34 46 34q10 0 19 -7t9 -17q0 -19 -66 -70q-32 -25 -32 -48q0 -27 30 -41q23 -11 54 -11q64 0 116 40zM272 356q-18 -14 -27 -19q-16 -9 -33 -9t-31.5 7t-14.5 23q0 11 12 24
q16 14 22 20q12 12 14 12t8 -6q20 -31 50 -52z" />
    <glyph glyph-name="j" unicode="j" horiz-adv-x="242" 
d="M-30 164l88 72q18 16 29.5 22t20.5 6q24 0 38 -22.5t14 -47.5q0 -45 -21 -100l-23 -58q45 32 73 54q38 29 71 58l2 -2l-156 -176q-16 -73 -40 -127q-38 -87 -82 -87q-13 0 -18.5 11t-5.5 25q0 51 25 99q32 61 113 133q1 12 2.5 23t1.5 25q0 40 -19 73q-23 39 -61 39
q-13 0 -27 -7q-7 -3 -23 -15zM230 358q-16 -14 -29 -21t-31 -7q-16 0 -31 7t-15 21q0 12 12 25l21.5 20.5t14.5 10.5q5 0 8 -6q21 -29 50 -50z" />
    <glyph glyph-name="k" unicode="k" horiz-adv-x="420" 
d="M428 120l2 -2l-81 -73q-62 -51 -91 -51q-25 0 -82 86l-40 62q-23 -23 -49 -61l-27.5 -42.5t-16 -20.5t-13.5 -6q-20 0 -28 25q-4 13 -4 25q0 24 8 51q4 15 18 49q41 95 56 127q34 70 68.5 127t81.5 110q8 12 16 12q13 0 17.5 -12.5t4.5 -27.5q0 -47 -13.5 -87t-42.5 -75
l-90 -91q-72 -75 -72 -93q0 -15 12 -30l24 -24q50 59 115 119q91 83 129 83q30 0 30 -32q0 -35 -40 -51q-28 -11 -70 -11h-32q-16 0 -16 -10q0 -18 40.5 -72.5t59.5 -57.5q24 0 50 11q6 3 76 43z" />
    <glyph glyph-name="l" unicode="l" horiz-adv-x="262" 
d="M272 118l2 -2q-59 -54 -89 -76q-62 -46 -103 -46q-33 0 -55.5 23.5t-22.5 56.5q0 50 39 139q24 55 69 133l62 106q26 42 27 43q23 31 39 31q10 0 14 -10t4 -22q0 -97 -35 -148l-103 -112q-28 -25 -43 -40q-29 -29 -29 -46q0 -29 53 -52q46 -20 79 -20q25 0 49 13
q9 5 43 29z" />
    <glyph glyph-name="m" unicode="m" horiz-adv-x="692" 
d="M698 118l2 -2q-69 -59 -112 -89.5t-60 -30.5q-28 0 -44 83t-34 83q-29 0 -101 -79t-107 -79q-8 0 -14 5t-6 15q0 17 20 62q24 53 26 68q0 12 -4 20t-14 8q-30 0 -119 -87t-111 -87q-13 0 -17.5 10t-4.5 24q0 53 13 94.5t47 73.5q34 30 55.5 43t36.5 13q12 0 12 -10
l-39 -78t-17 -60q0 -14 12 -14t99 74t121 74q11 0 21 -7.5t11 -18.5q0 -17 -23 -68q-11 -24 -11 -42q0 -14 12 -14q10 0 78 63t96 63q31 0 40 -76t40 -76q20 0 61 22z" />
    <glyph glyph-name="n" unicode="n" horiz-adv-x="462" 
d="M466 114l2 -2l-57 -50q-83 -70 -115 -70q-34 0 -39 84t-33 84q-23 0 -103 -86t-103 -86q-13 0 -17.5 13.5t-4.5 28.5q0 36 6.5 67.5t25 60t51.5 58.5q42 38 71 38q12 0 12 -10q0 -13 -28 -61t-28 -79q0 -12 8 -12q19 0 84 67t100 71q37 0 40 -77t32 -77q28 0 61 18z" />
    <glyph glyph-name="o" unicode="o" horiz-adv-x="378" 
d="M382 202q-14 -15 -33 -24t-45 -14q-7 -71 -69 -121.5t-135 -50.5q-40 0 -70 21q-34 24 -34 63q0 51 40 95q30 33 86 63q11 7 36 17q31 13 40 13l4 -2q0 -3 -3 -5t-5 -3q-40 -11 -70 -35q-36 -30 -36 -67q0 -36 30.5 -57t67.5 -21q40 0 71 24.5t37 63.5q-10 -1 -22.5 -1.5
t-19.5 -0.5q-19 0 -34.5 5t-15.5 21q0 9 4 21.5t6.5 21t6.5 19.5q7 14 17 14q11 0 42 -31t82 -31z" />
    <glyph glyph-name="p" unicode="p" horiz-adv-x="410" 
d="M98 14l64 97q43 62 86 100q52 47 98 47q28 0 47 -17t19 -45q0 -66 -73 -139t-139 -73q-28 0 -28 24q0 17 10 31.5t26 14.5q10 0 30 -8t32 -8q30 0 46 26t16 60q0 25 -12 40.5t-38 15.5q-54 0 -106 -84q-38 -60 -60 -134q-44 -133 -46 -137q-41 -97 -86 -97
q-13 0 -22.5 11.5t-9.5 24.5q0 46 47 120l77 114l2 28q0 35 -15 79q-19 55 -45 55q-15 0 -29 -8l-27 -18l-2 2l73 63q58 47 73 51q16 0 21 -11t5 -31q0 -43 -13 -94.5l-25 -99.5h4z" />
    <glyph glyph-name="q" unicode="q" horiz-adv-x="326" 
d="M206 234q-45 -14 -72 -34q-38 -29 -38 -68q0 -23 16.5 -40.5t39.5 -17.5q33 0 61 33q17 20 37 63q-14 20 -17 27q-9 17 -9 33q0 19 7 34t25 18q15 0 24.5 -8.5t9.5 -23.5q0 -8 -1 -12q-4 -10 -7 -20l27 -38q15 -23 15 -44q0 -40 -48 -137q-27 -56 -74 -135
q-14 -23 -18 -40t-4 -44q-36 -20 -58 -31q-42 -21 -58 -21q-20 0 -20 20q0 24 55.5 97.5l110.5 144.5q60 84 64 126q0 14 -4.5 24.5t-15.5 25.5q-30 -65 -73 -110q-56 -58 -115 -58q-28 0 -48 21t-20 49q0 64 74 117q65 46 134 53v-4z" />
    <glyph glyph-name="r" unicode="r" horiz-adv-x="304" 
d="M312 124l-63 -59q-91 -83 -127 -83q-22 0 -48 14t-26 34q0 22 20 41q53 52 56 61q0 17 -15.5 29.5t-34.5 18.5q-15 0 -34 -16l-30 -26l-2 2l18 18q26 27 26 32q0 3 -4 8t-4 8q3 11 38 42q39 32 45.5 38t10.5 6q24 0 24 -14l-8 -10q-14 -9 -14 -20q0 -9 47 -33
q23 -12 23 -23q0 -14 -36 -45t-38 -53q0 -29 26 -32q42 0 96 31q16 9 50 33z" />
    <glyph glyph-name="s" unicode="s" horiz-adv-x="242" 
d="M24 152l64 52l8 8q0 5 -4 8t-4 8q0 6 25.5 27.5l52.5 44.5q15 10 22 10q14 0 14 -10q0 -8 -8 -20t-8 -18q21 -24 37.5 -46.5t16.5 -45.5q0 -53 -61.5 -114.5t-114.5 -61.5q-22 0 -36 17t-14 41q0 19 11 36.5t29 17.5q20 0 38 -41q10 -21 24 -23q26 0 45 20t19 46
q0 24 -31 59t-39 35q-7 0 -40 -23l-44 -31z" />
    <glyph glyph-name="t" unicode="t" horiz-adv-x="274" 
d="M272 252q-33 -24 -71.5 -34t-86.5 -10q-12 -23 -18 -36q-10 -24 -10 -40q0 -29 32 -44q26 -12 60 -12q26 0 52 11q15 7 48 27l2 -2q-40 -40 -91 -75q-66 -45 -103 -45q-31 0 -50.5 24t-19.5 56q0 25 19 70q6 14 33 68h-20q-23 0 -32.5 6t-9.5 16q0 14 9 26t23 12
q12 0 28 -3t30 -5q35 70 55 98q43 60 87 60q24 0 24 -14q0 -23 -48 -78l-68 -78q17 -1 33 -1.5t33 -0.5q10 0 34 2t26 2z" />
    <glyph glyph-name="u" unicode="u" horiz-adv-x="440" 
d="M452 118q-42 -42 -85 -75q-64 -49 -95 -49q-26 0 -41 20q-19 25 -19 76q-48 -46 -70 -62q-48 -36 -84 -36q-29 0 -47.5 23.5t-18.5 54.5q0 44 51 118t87 74q26 0 26 -22q0 -30 -48 -60t-48 -54t31 -36t59 -12q50 0 111 81t85 81q11 0 20.5 -6t9.5 -16q0 -21 -23 -41
q-55 -49 -57 -59q0 -18 16.5 -29t37.5 -13q26 0 50 11.5t48 32.5z" />
    <glyph glyph-name="v" unicode="v" horiz-adv-x="356" 
d="M-6 132q33 38 56 61q44 45 60 45q22 0 22 -20q0 -4 -5 -28t-5 -38q0 -31 9.5 -54.5t32.5 -23.5q29 0 59 24q17 13 47 48q-11 11 -14 15q-7 9 -8 19q0 30 25 59.5t55 34.5q13 0 20.5 -8.5t7.5 -21.5q0 -17 -22 -42t-22 -40q0 -14 21 -22q14 -5 33 -8l-17 -5.5t-17 -2.5
q-14 0 -27.5 4.5t-30.5 13.5q-54 -69 -111 -116q-46 -38 -75 -42q-32 0 -45 41q-9 28 -9 77v32q0 16 -6 16q-9 0 -17 -7l-15 -13z" />
    <glyph glyph-name="w" unicode="w" horiz-adv-x="482" 
d="M494 196q-30 -12 -66 -12h-16l2 -16q0 -46 -8 -80.5t-30 -65.5q-14 -22 -36.5 -38t-45.5 -16q-36 0 -55 78t-41 78q-25 0 -74 -36t-80 -36q-19 0 -28.5 12.5t-9.5 31.5q0 27 3.5 50.5t14.5 39.5q19 25 80.5 75.5t73.5 50.5q8 -4 10 -10q0 -15 -43 -58t-43 -76
q0 -25 26 -28q14 0 53 12q20 6 31 6q24 0 46 -26q50 -58 80 -58q32 0 48 26t16 62v22q-26 0 -61 11q-45 14 -45 35v6q4 11 22.5 31.5t29.5 20.5l4 -2q35 -34 67 -57t75 -33z" />
    <glyph glyph-name="x" unicode="x" horiz-adv-x="346" 
d="M360 116q-46 -48 -83 -77q-61 -47 -99 -47q-39 0 -52 43q-4 13 -10 75l-45 -47q-29 -30 -43 -49q-5 -9 -9.5 -14.5t-12.5 -5.5q-10 0 -10 16q0 22 49 59l69 49q-4 43 -6 54q-8 39 -22 42q-22 0 -43 -15q-7 -5 -35 -33l-2 2q36 45 60 67q44 39 78 39q28 0 40 -35
q8 -24 8 -59l83 74t39 26q10 0 10 -16q0 -21 -16 -26q-61 -23 -114 -70q3 -32 7 -64q9 -42 37 -46q28 0 62 20q17 10 54 40z" />
    <glyph glyph-name="y" unicode="y" horiz-adv-x="430" 
d="M438 114l-194 -158q-61 -106 -119 -170q-54 -60 -89 -60q-32 0 -32 34q0 68 140 172l110 78q10 33 10 58q0 18 -6 33t-22 15q-19 0 -80 -57t-98 -61q-24 0 -38 19.5t-14 46.5q0 50 51 120t85 70q9 0 14.5 -4.5t7.5 -13.5q0 -21 -37 -50t-41 -50q0 -22 17 -38t39 -16
q44 0 122 84t92 84q10 0 16 -8t6 -20q0 -45 -30.5 -95.5l-59.5 -96.5l146 86z" />
    <glyph glyph-name="z" unicode="z" horiz-adv-x="326" 
d="M-6 134l26 24q20 19 20 22l-6 12q0 6 5 12q8 7 11 10l44 37q31 25 38 25l6 -6q0 -4 -3 -10t-3 -10q0 -13 58 -16t58 -26t-46 -67l-38 -35q9 -2 26 -5t26 -3h15q43 0 63.5 3.5t41.5 12.5q-19 -25 -49.5 -37.5t-64.5 -12.5q-48 0 -88 8q-16 -12 -25 -23q-13 -16 -13 -31
q0 -30 38 -54t68 -24q18 0 33 8.5t15 25.5q0 8 -6 21t-6 19q2 6 4 6q12 0 17 -16.5t5 -33.5q0 -39 -31.5 -69.5t-70.5 -30.5q-37 0 -86 27q-56 31 -56 65q0 33 32 66l56 52q-7 2 -16 5t-10 9q0 9 5.5 16.5t14.5 9.5q24 0 40 -8q12 10 16 15q8 10 8 21q0 16 -19 22t-49 6
l-38 -2l-64 -42z" />
    <glyph glyph-name="braceleft" unicode="{" horiz-adv-x="410" 
d="M140 322q42 -39 42 -66q0 -46 -62 -125t-62 -113q0 -23 63 -44q55 -18 85 -18q1 0 3.5 3t12.5 3q11 0 18 -10v-4q0 -24 -35 -51t-63 -27q-35 0 -93 27q-67 31 -67 63q0 53 36 114q80 136 80 140q0 16 -26.5 28t-67.5 12q-14 0 -19 5t-5 19q0 9 2 17t10 23q16 31 28 37
q22 5 44 11q107 24 116 93q14 114 54 163q37 51 116 78q65 22 140 22q36 0 36 -40q0 -6 -5 -13q-1 -2 -13 -17l-14 -25q-9 -17 -20 -17q-8 0 -13 9t-11 9q-9 0 -24 -6l-54 -12q-77 -17 -104.5 -42.5t-27.5 -83.5q0 -71 -16 -95.5t-84 -66.5z" />
    <glyph glyph-name="bar" unicode="|" horiz-adv-x="504" 
d="M172 666h90v-834h-90v834z" />
    <glyph glyph-name="braceright" unicode="}" horiz-adv-x="388" 
d="M236 270q-24 23 -34 38.5t-10 29.5q0 42 62 125t62 111q0 24 -55.5 43t-90.5 19q-3 0 -8 -3t-8 -3q-5 0 -11.5 4.5t-6.5 9.5q0 8 12 26q11 14 22 25t18 13l16 8l30 6q38 0 94 -27q64 -31 64 -63q0 -64 -57 -148t-57 -106q0 -15 27 -26.5t67 -11.5q14 -1 19 -6t5 -18
q0 -10 -12 -40q-17 -32 -36 -40l-64 -14q-78 -18 -87 -88q-14 -109 -55 -164q-37 -51 -116 -78q-65 -22 -142 -22q-34 0 -34 40q0 9 21 40.5t31 31.5t14 -14q6 -2 8 -2l24 4q123 31 130 34q58 28 58 104q0 73 16 97.5t84 64.5z" />
    <glyph glyph-name="asciitilde" unicode="~" horiz-adv-x="670" 
d="M294 576l-52 34q34 73 66 97.5t72 24.5q35 0 79 -18q102 -42 129 -42q25 0 43.5 13.5t40.5 48.5l52 -30q-27 -55 -57 -83q-40 -37 -93 -37q-35 0 -98 31t-98 31q-28 0 -46 -15t-38 -55z" />
    <glyph glyph-name="c128" horiz-adv-x="200" 
 />
    <glyph glyph-name="c129" horiz-adv-x="200" 
 />
    <glyph glyph-name="quotesinglbase" unicode="&#x201a;" horiz-adv-x="200" 
 />
    <glyph glyph-name="florin" unicode="&#x192;" horiz-adv-x="200" 
 />
    <glyph glyph-name="quotedblbase" unicode="&#x201e;" horiz-adv-x="200" 
 />
    <glyph glyph-name="ellipsis" unicode="&#x2026;" horiz-adv-x="200" 
 />
    <glyph glyph-name="dagger" unicode="&#x2020;" horiz-adv-x="200" 
 />
    <glyph glyph-name="daggerdbl" unicode="&#x2021;" horiz-adv-x="200" 
 />
    <glyph glyph-name="circumflex" unicode="&#x2c6;" horiz-adv-x="200" 
 />
    <glyph glyph-name="perthousand" unicode="&#x2030;" horiz-adv-x="200" 
 />
    <glyph glyph-name="Scaron" unicode="&#x160;" horiz-adv-x="200" 
 />
    <glyph glyph-name="guilsinglleft" unicode="&#x2039;" horiz-adv-x="504" 
d="M430 586v-90l-338 -158l338 -158v-88l-434 208v76z" />
    <glyph glyph-name="OE" unicode="&#x152;" 
d="M-160 854h-14q-12 0 -24 -6.5t-12 -15.5q0 -4 6 -7.5t12 -4.5l-24 -32q-28 0 -28 22q0 24 27 44t57 20h26q29 0 52.5 -14t23.5 -36q0 -36 -67 -67t-67 -49q0 -10 8 -18l-40 -20q-8 8 -8 18q0 26 55 64t55 72q0 13 -10.5 21.5t-27.5 8.5z" />
    <glyph glyph-name="c141" horiz-adv-x="200" 
 />
    <glyph glyph-name="c142" horiz-adv-x="200" 
 />
    <glyph glyph-name="c143" horiz-adv-x="200" 
 />
    <glyph glyph-name="c144" horiz-adv-x="200" 
 />
    <glyph glyph-name="quoteleft" unicode="&#x2018;" horiz-adv-x="232" 
d="M123 396q-12 0 -15 6l-2 4q0 25 47 80q41 48 57 56l4 -2q-1 -5 -2 -6q-20 -32 -29 -55q-13 -32 -13 -61q0 -14 -14 -18t-33 -4z" />
    <glyph glyph-name="quoteright" unicode="&#x2019;" horiz-adv-x="232" 
d="M195 542q15 0 17 -6v-4q0 -25 -38.5 -73.5t-65.5 -62.5l-4 2l22 44q22 47 22 80q1 13 14 16.5t33 3.5z" />
    <glyph glyph-name="quotedblleft" unicode="&#x201c;" horiz-adv-x="346" 
d="M240 396q-13 0 -16 6l-2 4q0 33 59 93l45 43q5 -1 6 -2l-2 -6q-22 -32 -31 -55q-13 -31 -13 -61q-1 -11 -11 -16q-4 -2 -35 -6zM123 396q-12 0 -15 6l-2 4q0 25 47 80q41 48 57 56l4 -2q-1 -5 -2 -6q-20 -32 -29 -55q-13 -32 -13 -61q0 -14 -14 -18t-33 -4z" />
    <glyph glyph-name="quotedblright" unicode="&#x201d;" horiz-adv-x="346" 
d="M195 542q15 0 17 -6v-4q0 -25 -38.5 -73.5t-65.5 -62.5l-4 2l22 44q22 47 22 80q1 13 14 16.5t33 3.5zM312 542q14 0 16 -6v-4q0 -26 -38 -74t-66 -62l-4 2l23 49q23 49 23 75q0 11 10 14q18 6 36 6z" />
    <glyph glyph-name="bullet" unicode="&#x2022;" horiz-adv-x="200" 
 />
    <glyph glyph-name="endash" unicode="&#x2013;" horiz-adv-x="346" 
d="M-6 188q31 0 79 -6q112 -14 147 -14q14 0 42 4t42 4l4 -2l-2 -6q-21 -34 -41.5 -48t-58.5 -14q-98 0 -194 12q-19 0 -26 2q-16 5 -16 18l11 32t13 18z" />
    <glyph glyph-name="emdash" unicode="&#x2014;" horiz-adv-x="566" 
d="M-8 188q100 -13 198.5 -18.5t215.5 -5.5q28 0 54 2.5t48 7.5h12l4 -2l-4 -6q-31 -45 -61 -58q-23 -10 -77 -10h-24q-130 0 -205 3q-178 7 -185 27q0 13 8.5 36t15.5 24z" />
    <glyph glyph-name="tilde" unicode="&#x2dc;" horiz-adv-x="200" 
 />
    <glyph glyph-name="trademark" unicode="&#x2122;" horiz-adv-x="200" 
 />
    <glyph glyph-name="scaron" unicode="&#x161;" horiz-adv-x="200" 
 />
    <glyph glyph-name="guilsinglright" unicode="&#x203a;" horiz-adv-x="504" 
d="M80 92v90l338 156l-338 158v90l434 -210v-76z" />
    <glyph glyph-name="oe" unicode="&#x153;" 
d="M-122 430h-20q-10 0 -20 -4.5t-10 -11.5q0 -4 14 -8l-20 -22q-9 0 -16.5 4t-7.5 10q0 17 29 31.5t55 14.5h20q26 0 45 -9t19 -25q0 -10 -6.5 -19.5t-17.5 -18.5q-13 -8 -58 -24q-34 -12 -34 -24q0 -9 6 -12l-30 -16q-10 8 -10 14q0 13 62 56q30 21 30 44q0 20 -30 20z
" />
    <glyph glyph-name="c157" horiz-adv-x="200" 
 />
    <glyph glyph-name="c158" horiz-adv-x="200" 
 />
    <glyph glyph-name="Ydieresis" unicode="&#x178;" horiz-adv-x="660" 
d="M528 162q39 88 52 124q30 82 30 128q0 12 -4 22t-14 10q-9 0 -74 -49q-79 -59 -136 -91q-90 -50 -154 -50q-62 0 -101 34t-39 94q0 67 63.5 170.5t106.5 103.5q28 0 28 -26q0 -22 -18 -41t-40 -19q-31 -3 -52.5 -33t-21.5 -63q0 -61 43.5 -99.5t104.5 -38.5q66 0 127 28
q50 23 109 72q35 29 96 90q47 47 59 56q26 20 43 20q13 0 19.5 -9t6.5 -23q0 -48 -35 -132q-29 -69 -77 -155q-34 -61 -76 -125q40 0 82 -6q10 -5 10 -10q-3 -8 -10 -8q-15 0 -45 4t-45 4q-74 -116 -195 -193q-131 -83 -259 -83q-48 0 -90 21q-52 26 -52 71q0 78 111 129
q86 40 230 60q107 15 193 15zM520 146q-209 0 -353 -45q-131 -41 -131 -109q0 -42 43 -61q33 -15 85 -15q112 0 208 67q85 59 148 163zM558 -106q-9 -13 -29.5 -24.5t-34.5 -11.5q-10 0 -26 14.5t-16 25.5q0 14 15 26t29 22q6 6 10 6q8 0 38 -39q5 -6 14 -19z" />
    <glyph glyph-name="nonbreakingspace" unicode="&#xa0;" horiz-adv-x="200" 
 />
    <glyph glyph-name="exclamdown" unicode="&#xa1;" horiz-adv-x="274" 
d="M238 398l34 10q-22 -49 -51 -122l-47.5 -119.5t-26.5 -63.5q-22 -39 -85 -39q-12 0 -12 12q23 71 84 165zM334 488q-5 -9 -28 -22.5t-36 -13.5q-9 0 -25.5 15.5t-16.5 26.5q0 8 22 26q10 8 24 22q6 6 8 6q4 0 12 -8q7 -12 12.5 -20.5t13 -13.5t11 -8t3.5 -10z" />
    <glyph glyph-name="cent" unicode="&#xa2;" horiz-adv-x="346" 
d="M260 348q17 0 27.5 -5t10.5 -21q0 -28 -32 -28q-10 0 -30 8l-82 -140l26 -6q35 0 93 30q28 14 49 28l4 -4q-38 -36 -101 -75q-72 -44 -115 -51l-19 -41q-17 -33 -27 -33q-4 4 -4 6q0 9 12 33l18 33q-32 3 -54 29t-22 59q0 66 71 115q55 38 133 55l34 71q18 27 58 39
q6 -2 6 -4zM204 314h-14q-36 0 -61 -24t-25 -62q0 -17 7.5 -30.5t20.5 -25.5z" />
    <glyph glyph-name="sterling" unicode="&#xa3;" horiz-adv-x="808" 
d="M312 440q88 0 146 39q49 33 100 113q11 16 21.5 25.5t24.5 10.5q27 0 44 -29q14 -25 14 -55q0 -72 -75 -119q-66 -41 -143 -41q-7 -11 -19 -25q-3 -4 -37 -41l182 -2q17 0 26 -7q11 -12 20 -19l8 -12l-3 -3t-13 1l-244 14q-24 -26 -61 -60l-39 -36l14 -8l96 -48
q73 -39 112 -50.5t76 -11.5q76 0 128 34q60 39 60 112l-2 30q0 8 6 8q14 0 14 -28q0 -101 -86 -172q-80 -66 -182 -66q-61 0 -125 25q-20 8 -189 101q-35 -26 -55 -38q-34 -19 -65 -22q-32 0 -54 20t-22 52q0 47 39 76.5t89 29.5q23 0 51 -6.5t77 -27.5q45 39 84 90l-196 12
q-12 0 -12 6q0 8 8 8h4l214 -2q9 11 17 23l29 43q-54 9 -82 56zM166 132q-34 21 -52 30q-33 16 -58 16q-21 0 -35.5 -14.5t-14.5 -35.5q0 -22 16 -37t40 -15q26 0 56 18q21 13 48 38z" />
    <glyph glyph-name="currency" unicode="&#xa4;" horiz-adv-x="534" 
d="M412 148q30 -30 40 -37.5t36 -18.5q12 -6 12 -12q0 -9 -12 -14l-52 -14q-20 0 -64 74q-32 -14 -57 -19t-61 -5q-122 0 -186 76l-66 -62q-11 -19 -17 -31q-13 -23 -23 -23q-7 0 -25.5 15.5t-18.5 20.5q0 20 51 61.5t77 52.5q-14 27 -19 48t-5 54q0 57 22.5 105t67.5 87
q-46 60 -46 78q0 12 14 26l22 24q5 8 12 8q10 0 10 -16q0 -26 4 -40.5t22 -55.5q61 32 128 32q49 0 92 -16t76 -46q4 5 21.5 21.5l36.5 34.5q49 46 72 46q9 0 18 -17l12 -29q0 -15 -30 -20q-16 -4 -50.5 -26.5t-49.5 -37.5l-4 -4q19 -30 25.5 -51t6.5 -57q0 -46 -9.5 -82
t-30.5 -68q4 -1 8 -6q0 -6 -18.5 -23.5t-41.5 -32.5zM364 210q10 7 18 13.5t20 20.5q-2 1 -4 6l4 6q13 15 21.5 47t8.5 55q0 60 -40 97t-106 37q-52 0 -98 -26q1 -1 6.5 -13t5.5 -13q0 -3 -5.5 -7.5t-8.5 -4.5q-5 0 -9.5 3.5t-16.5 16.5q-62 -53 -62 -136q0 -64 39 -102
t107 -38q29 0 47 4t45 16q-10 20 -10 26q0 5 5.5 9.5t10.5 4.5q3 0 7.5 -4t14.5 -18z" />
    <glyph glyph-name="yen" unicode="&#xa5;" horiz-adv-x="734" 
d="M582 294q14 44 18 59q10 37 10 61q0 12 -4 22t-14 10q-9 0 -74 -49q-79 -59 -136 -91q-90 -50 -154 -50q-62 0 -101 34t-39 94q0 67 63.5 170.5t106.5 103.5q28 0 28 -26q0 -22 -18 -41t-40 -19q-31 -3 -52.5 -33t-21.5 -63q0 -61 43.5 -99.5t104.5 -38.5q66 0 127 28
q50 23 109 72q35 29 96 90q47 47 59 56q26 20 43 20q13 0 19.5 -9t6.5 -23q0 -38 -23 -102q-30 -85 -83 -176h40v-24h-54l-14 -26h68v-24h-84l-38 -60q40 0 82 -6q10 -5 10 -10q-3 -8 -10 -8q-15 0 -45 4t-45 4q-74 -116 -195 -193q-131 -83 -259 -83q-48 0 -90 21
q-52 26 -52 71q0 78 111 129q86 40 230 60q107 15 193 15l24 -2l26 58h-86v24h96l10 26h-106v24h114zM520 146q-209 0 -353 -45q-131 -41 -131 -109q0 -42 43 -61q33 -15 85 -15q112 0 208 67q85 59 148 163z" />
    <glyph glyph-name="brokenbar" unicode="&#xa6;" horiz-adv-x="504" 
d="M172 666h90v-336h-90v336zM172 154h90v-322h-90v322z" />
    <glyph glyph-name="section" unicode="&#xa7;" horiz-adv-x="576" 
d="M368 110q19 -15 28 -27q16 -20 16 -49q0 -35 -18 -69.5t-48 -56.5q-96 -66 -292 -66q-63 0 -99.5 14t-36.5 40q0 6 6 19t8 17q20 38 36 52q23 20 60 20q8 0 8 -8q0 -6 -12 -14.5l-16 -11.5q22 -3 53.5 -5.5t58.5 -2.5q49 0 122 20q86 24 86 52q0 20 -46 38
q-107 43 -224 102q-58 28 -58 66q0 17 14 56q7 28 34 47q21 14 98 39q-45 25 -57.5 38t-12.5 34q0 37 12 77t36 63q42 42 116 67t158 25q146 0 146 -38q0 -34 -12 -61.5t-30 -34.5l-50 -22q-7 -3 -35 -23q-24 -17 -33 -17q-12 0 -12 14q0 6 8 14l52 48q-78 0 -123 -8
t-87 -28q-19 -8 -39 -22q-29 -20 -29 -34q0 -24 90 -62q62 -26 116 -58t86 -61.5t32 -78.5q0 -74 -110 -104zM214 342q-50 -12 -88 -35t-38 -43q0 -18 50 -40l174 -80q86 27 86 76q0 34 -106 86z" />
    <glyph glyph-name="dieresis" unicode="&#xa8;" horiz-adv-x="504" 
d="M194 358q-26 -36 -70 -36q-16 0 -28 8t-12 24q0 11 4 13q15 8 34 31q3 6 10 6q4 0 8 -8q8 -13 22.5 -22t31.5 -16zM350 358q-26 -36 -70 -36q-16 0 -28 8t-12 24q0 7 7 14.5l11 11.5q8 9 13 14q10 10 17 10q6 0 6 -8q8 -13 22.5 -22t33.5 -16z" />
    <glyph glyph-name="copyright" unicode="&#xa9;" horiz-adv-x="754" 
d="M434 402q39 31 62.5 59t23.5 43q0 8 -10 8q-57 0 -165 -103q-113 -108 -113 -181q0 -54 54 -54q58 0 139 47q47 27 125 87v-16q0 -37 -112 -106.5t-182 -69.5q-55 0 -85.5 26.5t-30.5 73.5q0 97 140 217.5t236 120.5q62 0 62 -52q0 -54 -85 -136t-139 -82q-14 0 -24 8
t-10 20q0 20 22 36l50 42q9 8 14 12q11 8 18 8t10 -8zM654 152q14 -5 14 -10q0 -14 -52.5 -56t-103.5 -64q-33 -14 -75 -23t-79 -9q-151 0 -240.5 85.5t-89.5 230.5q0 159 103.5 264.5t258.5 105.5q140 0 231 -85t91 -215q0 -131 -58 -224zM604 176q-6 3 -6 8q1 5 2 6
q26 26 42 86t16 106q0 107 -69.5 173.5t-180.5 66.5q-139 0 -229.5 -92.5t-90.5 -233.5q0 -115 66.5 -182.5t181.5 -67.5q166 0 268 130z" />
    <glyph glyph-name="ordfeminine" unicode="&#xaa;" horiz-adv-x="624" 
d="M99 596h440v-452h-440v452z" />
    <glyph glyph-name="guillemotleft" unicode="&#xab;" horiz-adv-x="368" 
d="M6 146l96 92q6 6 10 6q8 0 18 -8t10 -16t-47 -48l-33 -28l114 -88q10 -10 10 -14q0 -6 -9 -15t-17 -9q-6 0 -14 8zM148 146l116 108l4 6l6 2q6 0 15 -9t9 -15t-8 -14l-80 -80l84 -62q10 -5 12 -12q0 -19 -22 -28l-4 -2q-8 6 -12 8z" />
    <glyph glyph-name="logicalnot" unicode="&#xac;" horiz-adv-x="200" 
 />
    <glyph glyph-name="minus" unicode="&#xad;" horiz-adv-x="190" 
d="M-8 188q31 -5 65.5 -9.5t60.5 -4.5l34 2l2 -4q0 -19 -30.5 -40.5t-51.5 -21.5h-22q-31 0 -55 4t-27 14v8q9 29 14 39.5t10 12.5z" />
    <glyph glyph-name="registered" unicode="&#xae;" horiz-adv-x="754" 
d="M356 438q-27 -3 -51.5 -8.5t-46.5 -13.5h20q14 -3 14 -10q0 -8 -14 -10t-44.5 -5t-47.5 -3q-22 0 -22 16q0 18 15 43t29 33q47 25 113 35.5t137 10.5q75 0 115.5 -18.5t40.5 -53.5q0 -9 -4.5 -22.5t-13.5 -31.5q-24 -50 -128 -76q-17 -4 -158 -26q96 -28 148.5 -45.5
t69.5 -28.5q20 -11 20 -52q0 -26 -16 -26q-7 0 -125 42l-145 52l-46 -62l2 -4q0 -14 -16 -25t-30 -11q-16 0 -16 16q0 14 60 102q-24 9 -24 22q0 21 23.5 36t62.5 20zM404 442q-3 -27 -30 -64l-26 -34q89 20 129 32.5t69 31.5q26 15 26 26q0 14 -74 14h-41q-30 -4 -53 -6z
M654 152q14 -5 14 -10q0 -14 -52.5 -56t-103.5 -64q-33 -14 -75 -23t-79 -9q-151 0 -240.5 85.5t-89.5 230.5q0 159 103.5 264.5t258.5 105.5q140 0 231 -85t91 -215q0 -131 -58 -224zM604 176q-6 3 -6 8q1 5 2 6q26 26 42 86t16 106q0 107 -69.5 173.5t-180.5 66.5
q-139 0 -229.5 -92.5t-90.5 -233.5q0 -115 66.5 -182.5t181.5 -67.5q166 0 268 130z" />
    <glyph glyph-name="macron" unicode="&#xaf;" horiz-adv-x="200" 
 />
    <glyph glyph-name="degree" unicode="&#xb0;" horiz-adv-x="882" 
d="M449 616q105 0 170 -68t65 -167q0 -100 -65 -166.5t-170 -66.5q-102 0 -167 68t-65 165q0 98 64.5 166.5t167.5 68.5z" />
    <glyph glyph-name="plusminus" unicode="&#xb1;" horiz-adv-x="566" 
d="M376 438q18 0 56 3t56 3q28 0 28 -14l-4 -16l-18 -28q-14 -25 -23 -30.5t-37 -5.5l-58.5 -6.5t-51.5 -3.5q-44 -75 -44 -162q0 -12 -8 -12q-41 0 -63 6q-39 11 -39 40q0 28 13.5 60l26.5 62q-16 0 -49 -3t-49 -3q-12 0 -26 6t-14 16q0 8 12 20q30 33 39 42q14 14 55 14
q13 0 32.5 1t43.5 3q28 65 55 106q40 62 71 62q25 0 48 -26q2 -2 2.5 -4.5t1.5 -3.5q0 -17 -22 -62q-15 -30 -34 -64zM78 120l238 14q12 0 36 2t36 2q15 0 21.5 -2t6.5 -12q0 -4 -4 -16l-31 -53q-11 -13 -47 -13q-87 -9 -150.5 -13.5t-135.5 -4.5l-36 -2q-17 0 -21 1
q-19 5 -19 21q0 9 12 18l37 42q15 16 57 16z" />
    <glyph glyph-name="twosuperior" unicode="&#xb2;" horiz-adv-x="262" 
d="M216 316q-9 -21 -16 -32q-14 -22 -28 -22q-16 0 -31 3q-46 9 -51 9q-26 0 -52 -3l-42 -5q-12 0 -14 8q0 26 22.5 40t51.5 14q43 33 62 54q36 39 36 70q0 24 -17 39t-41 15q-34 0 -40 -30q11 -3 14 -18q0 -22 -7 -33t-19 -11q-25 0 -28 24q0 44 37 74t83 30q32 0 54 -13
q28 -17 28 -47q0 -35 -48 -85q-27 -28 -78 -69q21 0 62 -6t62 -6z" />
    <glyph glyph-name="threesuperior" unicode="&#xb3;" horiz-adv-x="262" 
d="M158 536q22 0 41 -12.5t19 -33.5q0 -24 -30 -42t-30 -26q0 -6 31 -34q15 -13 15 -28q0 -44 -47 -73q-41 -25 -89 -25q-31 0 -57 11q-35 15 -35 43q0 11 6 25t16 15q14 0 14 -10q0 -3 -3 -11t-3 -13q0 -15 16.5 -24.5t35.5 -9.5q25 0 47 10q29 13 29 34q0 14 -23 34
t-23 36q0 18 35 34t35 36q0 13 -10 20.5t-24 7.5q-21 0 -39 -25t-27 -25q-12 0 -12 10q0 31 38.5 53.5t73.5 22.5z" />
    <glyph glyph-name="acute" unicode="&#xb4;" horiz-adv-x="504" 
d="M250 394q13 0 23.5 -8.5t10.5 -21.5q0 -36 -43.5 -64t-80.5 -28q-10 0 -10 6q25 13 43.5 30.5t20.5 39.5v20q0 13 11 19.5t25 6.5z" />
    <glyph glyph-name="mu" unicode="&#xb5;" horiz-adv-x="546" 
d="M22 -170v650h90v-260q0 -60 11 -90.5t41 -51t66 -20.5q65 0 96 56q24 44 24 114v252h90v-480h-90v78q-41 -90 -120 -90q-74 0 -118 70v-228h-90z" />
    <glyph glyph-name="paragraph" unicode="&#xb6;" horiz-adv-x="566" 
d="M202 256q-146 41 -146 148q0 108 130 184t318 76h4q151 0 154 -28q0 -12 2 -36t2 -36q0 -34 -46 -34h-50l-91 -181q-48 -102 -81 -191q-39 -106 -56 -196q-3 -23 -4 -38q-4 -30 -14 -30q-19 3 -36.5 21.5t-17.5 38.5q0 64 42 182q33 92 92 218q42 90 88 176l-80 -2
q-45 -83 -93 -183q-61 -128 -96 -225q-45 -126 -45 -192q0 -34 -12 -34q-18 0 -36 21t-18 39q0 58 32 153q16 48 58 149z" />
    <glyph glyph-name="periodcentered" unicode="&#xb7;" horiz-adv-x="388" 
d="M228 166q-9 -13 -29.5 -24.5t-34.5 -11.5q-9 0 -25.5 15.5t-16.5 26.5q0 12 15 24.5l29 23.5l10 6q8 0 18 -15q16 -23 21.5 -27.5l9 -7.5t3.5 -10z" />
    <glyph glyph-name="periodcentered" unicode="&#x2219;" horiz-adv-x="388" 
d="M228 166q-9 -13 -29.5 -24.5t-34.5 -11.5q-9 0 -25.5 15.5t-16.5 26.5q0 12 15 24.5l29 23.5l10 6q8 0 18 -15q16 -23 21.5 -27.5l9 -7.5t3.5 -10z" />
    <glyph glyph-name="cedilla" unicode="&#xb8;" horiz-adv-x="504" 
d="M262 -26q12 -2 20 -9t8 -19q0 -36 -53 -62q-46 -22 -89 -22q-4 2 -4 4l4 2q53 22 69 69q13 39 35 39z" />
    <glyph glyph-name="onesuperior" unicode="&#xb9;" horiz-adv-x="190" 
d="M114 496l-32 -23q-22 -15 -36 -15q-10 0 -14 14q0 12 9.5 19t24.5 11q20 8 44 20l42 22q14 0 14 -8l-2 -8q-31 -61 -52 -117q-24 -65 -34 -123q-4 -19 -27 -22t-37 -4q-16 0 -16 10q0 25 49 112q3 6 67 112z" />
    <glyph glyph-name="ordmasculine" unicode="&#xba;" horiz-adv-x="664" 
d="M113 618h472v-489h-472v489zM157 576v-409h386v409h-386z" />
    <glyph glyph-name="guillemotright" unicode="&#xbb;" horiz-adv-x="368" 
d="M294 140l-144 -122q-6 -6 -12 -6t-16 12t-10 18q0 4 3.5 7t8.5 5l114 86l-114 86q-12 4 -12 12q0 4 5.5 10.5t8.5 10.5q7 9 12 9q6 0 12 -6zM152 140l-108 -90l-10 -6q-10 0 -19 7.5t-9 18.5l38 33q39 34 42 37q-28 22 -43 35q-37 31 -37 37q0 5 10 16q6 6 12 10
q4 0 16 -8z" />
    <glyph glyph-name="onequarter" unicode="&#xbc;" horiz-adv-x="494" 
d="M112 496l-34 -23.5t-32 -14.5q-14 0 -14 14q0 12 8.5 18.5t23.5 13.5q27 10 41 16q19 9 39 22l8 2q14 0 14 -8l-4 -8q-20 -38 -50 -119.5t-34.5 -110.5t-27 -32t-36.5 -4q-16 0 -16 10q0 31 47 113zM360 426l-240 -398q-15 -25 -19 -28q-7 -7 -19 -8q-8 2 -8 4l2 8l2 4
l206 398q15 25 33 38q22 16 49 16q8 0 8 -6q0 -10 -5 -16.5zM464 116q-17 -21 -40 -30.5t-54 -9.5l-22 -58q-15 -24 -54 -24q-12 0 -12 10q0 16 15 45l13 25q-12 0 -36 -2t-38 -2q-25 0 -38.5 3.5t-15.5 14.5q0 15 20 34q24 19 32 26q45 42 86 74q67 52 92 52q24 0 24 -24
q0 -9 -4 -20.5l-6 -17.5l-40 -98q13 0 39 1t39 1zM328 114l38 96l6 16q-11 0 -64.5 -43.5t-53.5 -60.5q0 -5 8.5 -6.5t17.5 -1.5h48z" />
    <glyph glyph-name="onehalf" unicode="&#xbd;" horiz-adv-x="462" 
d="M224 200l-104 -172q-15 -25 -19 -28q-7 -7 -19 -8q-8 2 -8 4l2 8l2 4l206 398q15 25 33 38q22 16 49 16q8 0 8 -6q0 -10 -5 -16.5l-9 -11.5l-114 -190q19 19 42 29.5t50 10.5q32 0 54 -13q28 -17 28 -47q0 -35 -48 -85q-27 -28 -78 -69q21 0 62 -6t62 -6q-10 -23 -16 -33
q-14 -23 -28 -23q-15 0 -51 9q-20 5 -31 5q-42 0 -92 -10q-13 0 -16 10q0 26 22.5 40t51.5 14q43 33 62 54q36 39 36 70q0 24 -17 39t-41 15q-34 0 -40 -30q11 -3 14 -18q0 -22 -7 -33t-19 -11q-25 0 -28 24q0 13 6 28zM112 496l-34 -23.5t-32 -14.5q-14 0 -14 14
q0 12 8.5 18.5t23.5 13.5q27 10 41 16q19 9 39 22l8 2q14 0 14 -8l-4 -8q-20 -38 -50 -119.5t-34.5 -110.5t-27 -32t-36.5 -4q-16 0 -16 10q0 31 47 113z" />
    <glyph glyph-name="threequarters" unicode="&#xbe;" horiz-adv-x="566" 
d="M158 536q22 0 41 -12.5t19 -33.5q0 -24 -30 -42t-30 -26q0 -6 31 -34q15 -13 15 -28q0 -44 -47 -73q-41 -25 -89 -25q-31 0 -57 11q-35 15 -35 43q0 12 7 25t15 15q14 0 14 -10q0 -4 -3 -12t-3 -12q0 -15 16.5 -24.5t35.5 -9.5q25 0 47 10q29 13 29 34q0 14 -23 34
t-23 36q0 18 35 34t35 36q0 26 -32 26q-24 0 -41 -24t-27 -24q-12 0 -12 10q0 30 39.5 53t72.5 23zM434 426l-242 -398q-10 -20 -13 -24q-9 -12 -22 -12q-9 0 -9 6l4 10l206 398q13 24 34.5 39t47.5 15q8 0 8 -8t-6 -15.5t-8 -10.5zM538 116q-17 -21 -40 -30.5t-54 -9.5
l-22 -58q-15 -24 -56 -24q-10 0 -10 8q0 15 9.5 34.5l18.5 37.5q-12 0 -36 -2t-38 -2q-25 0 -38.5 3.5t-15.5 14.5q0 13 20 33q11 11 30 27q56 49 88 74q68 52 92 52t24 -24q0 -10 -3.5 -18.5t-8.5 -19.5l-38 -98q13 0 39 1t39 1zM402 114l38 96l4 8l2 6l-2 2l-116 -104
q0 -5 8.5 -6.5t17.5 -1.5h48z" />
    <glyph glyph-name="questiondown" unicode="&#xbf;" horiz-adv-x="336" 
d="M202 140l36 58q16 -2 28 -12t12 -26q0 -42 -48 -78t-92 -36q-43 0 -76 21q-40 25 -40 67q0 64 100 120t100 92q0 8 -3 15l-9 15l58 40q12 -21 12 -40q0 -46 -79 -113t-79 -129q0 -24 15 -39t39 -15q17 0 32.5 11t15.5 27q0 18 -22 22zM290 488q-5 -9 -28 -22.5t-36 -13.5
q-10 0 -26 14.5t-16 25.5q0 8 22 26q10 8 24 22q3 6 8 6q9 0 12 -6q7 -12 11 -18q8 -12 15 -18q14 -9 14 -16z" />
    <glyph glyph-name="Agrave" unicode="&#xc0;" 
d="M-100 702q0 -7 -13.5 -21.5t-20.5 -14.5q-13 0 -32 22t-34 22q-17 0 -51 -21t-51 -21l-6 2q0 4 5.5 7.5l10.5 6.5l54 39q31 23 52 43q5 10 14 10q2 0 3.5 -1.5l2.5 -2.5l6 -4q12 -15 23.5 -27.5t24.5 -22.5q12 -12 12 -16zM-163 899q15 0 25.5 -7t10.5 -21l-2 -12
q0 -23 16.5 -41.5t39.5 -28.5q1 -1 8 -6q0 -6 -4 -6q-36 0 -80 25q-50 29 -50 61q0 15 10 24.5t26 11.5z" />
    <glyph glyph-name="Aacute" unicode="&#xc1;" 
d="M-100 702q0 -7 -13.5 -21.5t-20.5 -14.5q-13 0 -32 22t-34 22q-17 0 -51 -21t-51 -21l-6 2q0 4 5.5 7.5l10.5 6.5l54 39q31 23 52 43q5 10 14 10q2 0 3.5 -1.5l2.5 -2.5l6 -4q12 -15 23.5 -27.5t24.5 -22.5q12 -12 12 -16zM-10 876q14 0 25 -8t11 -22q0 -36 -43.5 -64
t-82.5 -28q-8 0 -8 6q24 13 42.5 30t21.5 40l-2 20q0 13 11 19.5t25 6.5z" />
    <glyph glyph-name="Acircumflex" unicode="&#xc2;" 
d="M-102 710q0 -7 -13.5 -21.5t-20.5 -14.5q-13 0 -32 22t-34 22q-17 0 -51 -21t-51 -21l-6 2q0 4 5.5 7.5l10.5 6.5l54 39q31 23 52 43q5 10 14 10q2 0 3.5 -1.5l2.5 -2.5l6 -4q12 -15 23.5 -27.5t24.5 -22.5q12 -12 12 -16z" />
    <glyph glyph-name="Atilde" unicode="&#xc3;" 
d="M-100 702q0 -7 -13.5 -21.5t-20.5 -14.5q-13 0 -32 22t-34 22q-17 0 -51 -21t-51 -21l-6 2q0 4 5.5 7.5l10.5 6.5l54 39q31 23 52 43q5 10 14 10q2 0 3.5 -1.5l2.5 -2.5l6 -4q12 -15 23.5 -27.5t24.5 -22.5q12 -12 12 -16zM-184 880q15 0 34 -8q54 -23 58 -24q24 0 40 22
l10 10q8 0 8 -8q-5 -26 -31.5 -49t-54.5 -23q-18 0 -52 17t-50 17q-12 0 -20 -9t-18 -19q-6 0 -6 6q0 20 29 44t53 24z" />
    <glyph glyph-name="Adieresis" unicode="&#xc4;" 
d="M-96 702q0 -7 -13.5 -21.5t-20.5 -14.5q-13 0 -32 22t-34 22q-17 0 -51 -21t-51 -21l-6 2q0 4 5.5 7.5l10.5 6.5l54 39q31 23 52 43q5 10 14 10q2 0 3.5 -1.5l2.5 -2.5l6 -4q12 -15 23.5 -27.5t24.5 -22.5q12 -12 12 -16zM-358 -98q-9 -13 -29.5 -24.5t-34.5 -11.5
q-10 0 -26 14.5t-16 25.5q0 14 15.5 26l28.5 22q6 6 10 6q8 0 38 -39q5 -6 14 -19z" />
    <glyph glyph-name="Aring" unicode="&#xc5;" 
d="M-100 702q0 -7 -13.5 -21.5t-20.5 -14.5q-13 0 -32 22t-34 22q-17 0 -51 -21t-51 -21l-6 2q0 4 5.5 7.5l10.5 6.5l54 39q31 23 52 43q5 10 14 10q2 0 3.5 -1.5l2.5 -2.5l6 -4q12 -15 23.5 -27.5t24.5 -22.5q12 -12 12 -16zM-28 924h-14q-12 0 -24 -6.5t-12 -15.5
q0 -4 6 -7.5t12 -4.5l-24 -32q-28 0 -28 22q0 24 27 44t57 20h26q29 0 52.5 -14t23.5 -36q0 -36 -67 -67t-67 -49q0 -10 8 -18l-40 -20q-8 8 -8 18q0 26 55 64t55 72q0 13 -10.5 21.5t-27.5 8.5z" />
    <glyph glyph-name="AE" unicode="&#xc6;" horiz-adv-x="576" 
d="M178 162q-24 -24 -35 -42q-17 -27 -17 -54q0 -36 42.5 -64t81.5 -28q54 0 111 85l45 75q51 89 105 214q67 156 67 220q0 50 -81 69q-48 11 -133 11q-103 0 -155 -11q-76 -16 -112 -59q-43 -51 -43 -150q0 -20 10 -20l2 2q6 3 15 56q14 80 287 80q56 0 82 -14
q38 -20 38 -74q0 -96 -58 -219q-68 -145 -152 -145q-30 0 -57 22q-17 13 -43 46zM400 884h-14q-12 0 -24 -6.5t-12 -15.5q0 -4 6 -7.5t12 -4.5l-24 -32q-28 0 -28 22q0 24 27 44t57 20h26q29 0 52.5 -14t23.5 -36q0 -36 -67 -67t-67 -49q0 -10 8 -18l-40 -20q-8 8 -8 18
q0 26 55 64t55 72q0 13 -10.5 21.5t-27.5 8.5z" />
    <glyph glyph-name="Ccedilla" unicode="&#xc7;" horiz-adv-x="766" 
d="M590 550q6 2 18 2q11 0 34.5 -8t23.5 -18v-4q-4 -7 -15 -16t-21 -16q-19 -15 -35 -29l-33 -33l-108 -108q-15 -15 -32 -24.5t-36 -9.5q-22 0 -36 15t-14 37q0 57 77 121q65 54 129 77l16 26q10 13 10 28q0 13 -11 18.5t-27 5.5q-51 0 -129 -31q-68 -27 -121 -61
q-70 -42 -109 -95q-47 -63 -47 -135q0 -108 122 -157q88 -35 228 -35q120 0 188 21q114 35 114 127q0 14 -2 20q0 10 6 10q4 0 7 -11t3 -25q0 -122 -149 -192q-119 -56 -255 -56q-72 0 -126 9t-106 35q-58 29 -94 82.5t-36 115.5q0 107 71.5 189t200.5 143.5t238 61.5
q27 0 49 -7t25 -25q0 -12 -6 -24.5t-12 -23.5zM310 -26q30 -4 30 -28q0 -36 -54 -62q-46 -22 -88 -22q-6 2 -6 4q1 1 6 2l4 2q51 19 64 62.5t36 43.5z" />
    <glyph glyph-name="Egrave" unicode="&#xc8;" 
d="M-326 726q0 6 5 12q8 7 11 10q7 8 11 11q8 7 15 7q17 -20 35 -34t37 -14q25 0 56 12.5t60 29.5q1 1 8 2l6 -2l-2 -4q-33 -33 -64 -54q-44 -30 -76 -30q-25 0 -59 15q-40 18 -43 39zM-276 908q15 0 25.5 -7t10.5 -21l-2 -12q0 -23 16.5 -41.5t39.5 -28.5q1 -1 8 -6
q0 -6 -4 -6q-36 0 -80 25q-50 29 -50 61q0 15 10 24.5t26 11.5z" />
    <glyph glyph-name="Eacute" unicode="&#xc9;" 
d="M-320 728q0 6 5 12q8 7 11 10q7 8 11 11q8 7 15 7q17 -20 35 -34t37 -14q25 0 56 12.5t60 29.5q1 1 8 2l6 -2l-2 -4q-33 -33 -64 -54q-44 -30 -76 -30q-25 0 -59 15q-40 18 -43 39zM-114 894q14 0 25 -8t11 -22q0 -36 -43.5 -64t-82.5 -28q-8 0 -8 6q24 13 42.5 30
t21.5 40l-2 20q0 13 11 19.5t25 6.5z" />
    <glyph glyph-name="Ecircumflex" unicode="&#xca;" 
d="M-314 724q0 6 5 12q8 7 11 10q7 8 11 11q8 7 15 7q17 -20 35 -34t37 -14q25 0 56 12.5t60 29.5q1 1 8 2l6 -2l-2 -4q-33 -33 -64 -54q-44 -30 -76 -30q-25 0 -59 15q-40 18 -43 39z" />
    <glyph glyph-name="Edieresis" unicode="&#xcb;" 
d="M-322 726q0 6 5 12q8 7 11 10q7 8 11 11q8 7 15 7q17 -20 35 -34t37 -14q25 0 56 12.5t60 29.5q1 1 8 2l6 -2l-2 -4q-33 -33 -64 -54q-44 -30 -76 -30q-25 0 -59 15q-40 18 -43 39zM-422 -66q-9 -13 -29.5 -24.5t-34.5 -11.5q-10 0 -26 14.5t-16 25.5q0 14 15.5 26
l28.5 22q6 6 10 6q8 0 38 -39q5 -6 14 -19z" />
    <glyph glyph-name="Igrave" unicode="&#xcc;" horiz-adv-x="576" 
d="M178 162q-24 -24 -35 -42q-17 -27 -17 -54q0 -36 42.5 -64t81.5 -28q54 0 111 85l45 75q51 89 105 214q67 156 67 220q0 50 -81 69q-48 11 -133 11q-103 0 -155 -11q-76 -16 -112 -59q-43 -51 -43 -150q0 -20 10 -20l2 2q6 3 15 56q14 80 287 80q56 0 82 -14
q38 -20 38 -74q0 -96 -58 -219q-68 -145 -152 -145q-30 0 -57 22q-17 13 -43 46zM324 830q14 0 26 -6.5t12 -19.5l-2 -14q0 -22 16 -41t38 -29q7 0 10 -6q-4 -6 -6 -6q-36 0 -79 26q-49 29 -49 62q0 14 10 24t24 10z" />
    <glyph glyph-name="Iacute" unicode="&#xcd;" horiz-adv-x="576" 
d="M178 162q-24 -24 -35 -42q-17 -27 -17 -54q0 -36 42.5 -64t81.5 -28q54 0 111 85l45 75q51 89 105 214q67 156 67 220q0 50 -81 69q-48 11 -133 11q-103 0 -155 -11q-76 -16 -112 -59q-43 -51 -43 -150q0 -20 10 -20l2 2q6 3 15 56q14 80 287 80q56 0 82 -14
q38 -20 38 -74q0 -96 -58 -219q-68 -145 -152 -145q-30 0 -57 22q-17 13 -43 46zM416 836q14 0 25 -8t11 -22q0 -36 -43.5 -64t-82.5 -28q-8 0 -8 6q24 13 42.5 30t21.5 40l-2 20q0 13 11 19.5t25 6.5z" />
    <glyph glyph-name="Icircumflex" unicode="&#xce;" horiz-adv-x="660" 
d="M528 162q39 88 52 124q30 82 30 128q0 12 -4 22t-14 10q-9 0 -74 -49q-79 -59 -136 -91q-90 -50 -154 -50q-62 0 -101 34t-39 94q0 67 63.5 170.5t106.5 103.5q28 0 28 -26q0 -22 -18 -41t-40 -19q-31 -3 -52.5 -33t-21.5 -63q0 -61 43.5 -99.5t104.5 -38.5q66 0 127 28
q50 23 109 72q35 29 96 90q47 47 59 56q26 20 43 20q13 0 19.5 -9t6.5 -23q0 -48 -35 -132q-29 -69 -77 -155q-34 -61 -76 -125q40 0 82 -6q10 -5 10 -10q-3 -8 -10 -8q-15 0 -45 4t-45 4q-74 -116 -195 -193q-131 -83 -259 -83q-48 0 -90 21q-52 26 -52 71q0 78 111 129
q86 40 230 60q107 15 193 15zM520 146q-209 0 -353 -45q-131 -41 -131 -109q0 -42 43 -61q33 -15 85 -15q112 0 208 67q85 59 148 163zM558 -106q-9 -13 -29.5 -24.5t-34.5 -11.5q-10 0 -26 14.5t-16 25.5q0 14 15 26t29 22q6 6 10 6q8 0 38 -39q5 -6 14 -19z" />
    <glyph glyph-name="Idieresis" unicode="&#xcf;" 
d="M-378 -124q-9 -13 -29.5 -24.5t-34.5 -11.5q-10 0 -26 14.5t-16 25.5q0 14 15.5 26l28.5 22q6 6 10 6q8 0 38 -39q5 -6 14 -19z" />
    <glyph glyph-name="Eth" unicode="&#xd0;" horiz-adv-x="200" 
 />
    <glyph glyph-name="Ntilde" unicode="&#xd1;" horiz-adv-x="818" 
d="M768 428l12 -16q15 -28 23.5 -61.5t8.5 -64.5q0 -70 -38 -133t-104 -99q-46 -25 -95 -36.5t-103 -11.5q-74 0 -176 22q-222 48 -238 48t-29 -2t-23 -8q-24 -14 -24 -42l4 -22q23 -38 102 -52l162 -16v-4l-2 -6l-10 -2q-19 -2 -32 -3t-34 -1q-65 0 -118 16q-65 20 -88 58
q-4 6 -6 16t-2 18q0 36 33 74q26 31 63 52q24 13 49 19.5t53 6.5q31 0 86 -10l54 -10l110 -22q44 -12 89 -21t83 -9q29 0 58.5 7t53.5 19q43 24 68.5 68.5t25.5 95.5q0 25 -4.5 45t-15.5 39l-12 22q-19 -28 -45 -50q-22 -19 -55 -38q-84 -48 -184 -48q-33 0 -69 7t-69 19
l-130 -70l-11.5 -5.5t-6.5 -2.5q-6 0 -10 8l-2 4q0 10 10 10l116 72q-25 11 -48 31t-36 45q-9 17 -13.5 33t-4.5 33q0 40 22.5 78.5t57.5 57.5q75 42 166 42q60 0 118 -18.5t102 -53.5q13 8 30 8t32.5 -10t27.5 -28q20 -40 20 -74zM726 444q-54 63 -135 104q-87 44 -171 44
q-33 0 -62 -6.5t-56 -21.5q-19 -10 -30.5 -31.5t-11.5 -44.5q0 -18 10 -38q17 -32 59 -52q22 -11 79 -26l144 86l8 8h8q8 0 19 -2.5t15 -9.5v-6q0 -2 -6 -8l-4 -4l-132 -72h28q65 0 98 5q51 8 94 31q18 13 27.5 21.5t18.5 22.5z" />
    <glyph glyph-name="Ograve" unicode="&#xd2;" horiz-adv-x="576" 
d="M178 162q-24 -24 -35 -42q-17 -27 -17 -54q0 -36 42.5 -64t81.5 -28q54 0 111 85l45 75q51 89 105 214q67 156 67 220q0 50 -81 69q-48 11 -133 11q-103 0 -155 -11q-76 -16 -112 -59q-43 -51 -43 -150q0 -20 10 -20l2 2q6 3 15 56q14 80 287 80q56 0 82 -14
q38 -20 38 -74q0 -96 -58 -219q-68 -145 -152 -145q-30 0 -57 22q-17 13 -43 46zM282 -130q-9 -13 -29.5 -24.5t-34.5 -11.5q-10 0 -26 14.5t-16 25.5q0 14 15 26t29 22q6 6 10 6q8 0 38 -39q5 -6 14 -19z" />
    <glyph glyph-name="Oacute" unicode="&#xd3;" horiz-adv-x="576" 
d="M178 162q-24 -24 -35 -42q-17 -27 -17 -54q0 -36 42.5 -64t81.5 -28q54 0 111 85l45 75q51 89 105 214q67 156 67 220q0 50 -81 69q-48 11 -133 11q-103 0 -155 -11q-76 -16 -112 -59q-43 -51 -43 -150q0 -20 10 -20l2 2q6 3 15 56q14 80 287 80q56 0 82 -14
q38 -20 38 -74q0 -96 -58 -219q-68 -145 -152 -145q-30 0 -57 22q-17 13 -43 46zM336 810q20 0 48 -12q38 -16 46 -18q26 0 40 20q5 10 10 10q6 0 6 -6q-4 -27 -31.5 -49.5t-54.5 -22.5q-18 0 -52 17t-50 17q-12 0 -19 -7l-19 -21q-6 0 -6 4q0 21 29.5 44.5t52.5 23.5z" />
    <glyph glyph-name="Ocircumflex" unicode="&#xd4;" horiz-adv-x="808" 
d="M770 498q7 11 13.5 16.5t12.5 15.5q7 15 7.5 34t0.5 28q0 21 -10 44q14 7 29 13q23 9 31 9q11 0 21.5 -22t10.5 -36q0 -16 -16.5 -43t-43.5 -59q-10 -12 -22.5 -18.5t-17.5 -11.5q16 -35 16 -72q0 -72 -43 -149q-37 -67 -97 -123q-64 -61 -147.5 -96.5t-168.5 -35.5
q-125 0 -212 61q-100 70 -100 191q0 79 33 150.5t93 129.5q52 52 108 84q70 40 132 40q39 0 56.5 -16t27.5 -56q48 12 98 12q58 0 109 -23.5t79 -66.5zM164 238l-10 2q4 45 24 89q17 37 48 79q46 65 108 104q52 33 138 60q-9 31 -25.5 44.5t-48.5 13.5q-44 0 -92 -28
q-42 -24 -76 -62q-42 -48 -64 -108t-22 -124q0 -118 83 -180q75 -56 197 -56q32 0 69 8t71 20q69 25 128 89q66 72 66 141q0 82 -65 127q-57 39 -145 39q-130 0 -236 -67q-115 -72 -148 -191z" />
    <glyph glyph-name="Otilde" unicode="&#xd5;" 
d="M-238 790q20 0 48 -12q38 -16 46 -18q26 0 40 20q5 10 10 10q6 0 6 -6q-4 -27 -31.5 -49.5t-54.5 -22.5q-18 0 -52 17t-50 17q-12 0 -20 -9t-18 -19q-6 0 -6 4q0 21 29.5 44.5t52.5 23.5z" />
    <glyph glyph-name="Odieresis" unicode="&#xd6;" horiz-adv-x="860" 
d="M764 414l6 -96v-23q0 -54 7 -83q12 -48 43 -48q26 0 64 25l34 23l2 -6q-58 -52 -91 -77q-70 -53 -103 -53q-28 0 -42 37t-14 107q0 37 -3 93t-3 57q-31 -43 -62 -80q-72 -80 -124 -124q-74 -63 -145 -96q-83 -38 -171 -38q-65 0 -110 24q-56 30 -56 90q0 64 58 165
q20 34 56 87h-20q-25 0 -43.5 15.5t-28.5 40.5q52 0 138 74q71 61 112 120q8 8 12 8q4 -1 10 -18.5t6 -33.5v-14q0 -65 -41 -113q-32 -38 -99 -73q-34 -16 -65 -67t-31 -91q0 -58 48 -90q42 -28 104 -28q126 0 232 60q98 56 178 162q9 13 19 26q19 29 19 50l-2 10
q0 27 6 40.5t16 19.5q23 14 32 18q21 10 38 10q7 -1 9.5 -11.5t2.5 -24.5v-40l50 64q7 15 7.5 34t0.5 28q0 21 -10 44q14 7 29 13q23 9 31 9q11 0 21.5 -22t10.5 -36q0 -16 -16.5 -43t-43.5 -59q-11 -12 -39 -35z" />
    <glyph glyph-name="multiply" unicode="&#xd7;" horiz-adv-x="566" 
d="M194 316q-29 43 -43 66q-25 41 -25 74q0 14 4 19.5t22 9.5l40 9q16 0 41 -48l35 -72q50 41 101 75q75 51 103 51q14 0 22 -20t8 -36q0 -17 -18.5 -33.5t-63.5 -40.5q-32 -18 -49.5 -29.5t-52.5 -40.5q51 -67 55 -74q37 -55 37 -80q0 -17 -21.5 -36.5t-38.5 -19.5
q-8 0 -52 65l-54 81q-30 -30 -46 -48q-22 -25 -42 -54q-5 -5 -7 -18.5t-5 -13.5q-21 0 -43.5 29.5t-22.5 50.5q0 18 28 50.5t88 83.5z" />
    <glyph glyph-name="Oslash" unicode="&#xd8;" 
d="M-236 806q15 0 25.5 -7t10.5 -21l-2 -12q0 -23 16.5 -41.5t39.5 -28.5q1 -1 8 -6q0 -6 -4 -6q-36 0 -80 25q-50 29 -50 61q0 15 10 24.5t26 11.5z" />
    <glyph glyph-name="Ugrave" unicode="&#xd9;" 
d="M-136 808q15 -2 25.5 -10.5t10.5 -21.5q0 -36 -43.5 -64t-82.5 -28q-8 0 -8 8q24 13 42.5 30t21.5 40l-2 18q0 13 11.5 20.5t24.5 7.5z" />
    <glyph glyph-name="Uacute" unicode="&#xda;" 
d="M-324 724q0 6 5 12q8 7 11 10q7 8 11 11q8 7 15 7q17 -20 35 -34t37 -14q25 0 56 12.5t60 29.5q1 1 8 2l6 -2l-2 -4q-33 -33 -64 -54q-44 -30 -76 -30q-25 0 -59 15q-40 18 -43 39zM-148 938h-14q-12 0 -24 -6.5t-12 -15.5q0 -4 6 -7.5t12 -4.5l-24 -32q-28 0 -28 22
q0 24 27 44t57 20h26q29 0 52.5 -14t23.5 -36q0 -36 -67 -67t-67 -49q0 -10 8 -18l-40 -20q-8 8 -8 18q0 26 55 64t55 72q0 13 -10.5 21.5t-27.5 8.5z" />
    <glyph glyph-name="Ucircumflex" unicode="&#xdb;" 
d="M-160 854h-14q-12 0 -24 -6.5t-12 -15.5q0 -4 6 -7.5t12 -4.5l-24 -32q-28 0 -28 22q0 24 27 44t57 20h26q29 0 52.5 -14t23.5 -36q0 -36 -67 -67t-67 -49q0 -10 8 -18l-40 -20q-8 8 -8 18q0 26 55 64t55 72q0 13 -10.5 21.5t-27.5 8.5z" />
    <glyph glyph-name="Udieresis" unicode="&#xdc;" 
d="M-310 726q0 6 5 12q8 7 11 10q7 8 11 11q8 7 15 7q17 -20 35 -34t37 -14q25 0 56 12.5t60 29.5q1 1 8 2l6 -2l-2 -4q-33 -33 -64 -54q-44 -30 -76 -30q-25 0 -59 15q-40 18 -43 39zM-130 882q20 0 48 -12q38 -16 46 -18q26 0 40 20q5 10 10 10q6 0 6 -6
q-4 -27 -31.5 -49.5t-54.5 -22.5q-18 0 -52 17t-50 17q-12 0 -20 -9t-18 -19q-6 0 -6 4q0 21 29.5 44.5t52.5 23.5z" />
    <glyph glyph-name="Yacute" unicode="&#xdd;" horiz-adv-x="734" 
d="M528 162q39 88 52 124q30 82 30 128q0 12 -4 22t-14 10q-9 0 -74 -49q-79 -59 -136 -91q-90 -50 -154 -50q-62 0 -101 34t-39 94q0 67 63.5 170.5t106.5 103.5q28 0 28 -26q0 -22 -18 -41t-40 -19q-31 -3 -52.5 -33t-21.5 -63q0 -61 43.5 -99.5t104.5 -38.5q66 0 127 28
q50 23 109 72q35 29 96 90q47 47 59 56q26 20 43 20q13 0 19.5 -9t6.5 -23q0 -48 -35 -132q-29 -69 -77 -155q-34 -61 -76 -125q40 0 82 -6q10 -5 10 -10q-3 -8 -10 -8q-15 0 -45 4t-45 4q-74 -116 -195 -193q-131 -83 -259 -83q-48 0 -90 21q-52 26 -52 71q0 78 111 129
q86 40 230 60q107 15 193 15zM520 146q-209 0 -353 -45q-131 -41 -131 -109q0 -42 43 -61q33 -15 85 -15q112 0 208 67q85 59 148 163zM522 786q15 -2 25.5 -10.5t10.5 -21.5q0 -36 -43.5 -64t-82.5 -28q-8 0 -8 8q24 13 42.5 30t21.5 40l-2 18q0 13 11.5 20.5t24.5 7.5z
" />
    <glyph glyph-name="Thorn" unicode="&#xde;" horiz-adv-x="964" 
d="M322 662q12 -27 19 -52t7 -50q0 -20 -14 -36l-46 -52l-142 -358l64 50l96 78q113 92 143 114q86 64 158 96q89 40 175 40q82 0 143 -41q69 -47 69 -127q0 -169 -168 -294q-155 -116 -330 -116q-69 0 -130.5 15t-111.5 51q-6 3 -6 22q0 17 3.5 40.5t8.5 51.5q-2 6 -4 6
q-3 -4 -4 -6q-4 -7 -4 -12q0 -12 10 -12q28 -5 49 -24t21 -44q4 -42 51 -57q29 -9 87 -9q156 0 276 90q60 45 122 133q70 100 70 163q0 59 -65 93q-56 29 -129 29q-88 0 -186 -54q-67 -37 -172 -123q-145 -119 -156 -127q-23 -16 -56 -44q-43 -36 -48 -50q-21 -52 -23 -59
q-4 -5 -37 -65q-20 -36 -29 -46q-22 -26 -47 -26t-45.5 15.5t-20.5 38.5q0 39 62.5 125t179.5 207l90 220q-22 -14 -43 -21t-45 -7q-33 0 -57 24q-19 19 -33 54l15.5 -5t16.5 -3q48 0 120 61q57 49 96 103z" />
    <glyph glyph-name="germandbls" unicode="&#xdf;" horiz-adv-x="494" 
d="M-12 154q29 32 62 56q28 20 42 20q7 0 12.5 -5t7.5 -13q0 -14 -1.5 -25.5t-8.5 -32.5l-30 -124q62 145 73 168q45 95 93 160q37 52 86 91q61 50 114 55q22 0 40 -10.5t18 -31.5q0 -35 -32 -64q-75 -68 -78 -90q0 -13 51 -71q25 -29 25 -53q0 -62 -74 -130t-136 -68
q-17 0 -28.5 8t-11.5 24q0 18 10.5 32.5t27.5 17.5q12 0 26 -7q34 -17 42 -17q28 0 51 20t23 48q0 29 -48 75t-48 63q0 22 60 71t60 85q0 17 -14.5 29.5t-33.5 12.5q-44 0 -92 -75q-36 -56 -74 -157q-25 -67 -44 -132l-40 -128q-25 -87 -39 -121q-35 -87 -69 -93
q-15 0 -24.5 10.5t-9.5 25.5q0 47 30 114q66 147 66 238q0 17 -7 32.5t-21 15.5q-12 0 -22 -5q-4 -2 -32 -23z" />
    <glyph glyph-name="agrave" unicode="&#xe0;" 
d="M-58 338q0 -8 -13 -23t-21 -15q-13 0 -32 22t-34 22q-17 0 -51 -21t-51 -21l-6 4q0 2 7 7.5t9 6.5l54 39q34 25 52 43q3 2 5 5q6 5 9 5q2 0 3.5 -1.5l2.5 -2.5l6 -6q20 -22 22 -25q16 -17 26 -25q12 -12 12 -14zM-129 544q15 0 26.5 -7t11.5 -21l-2 -12q0 -22 16 -41
t38 -29l10 -6q0 -6 -6 -6q-36 0 -79 25q-49 28 -49 61q0 15 9.5 24.5t24.5 11.5z" />
    <glyph glyph-name="aacute" unicode="&#xe1;" 
d="M-44 338q0 -8 -13 -23t-21 -15q-13 0 -32 22t-34 22q-17 0 -51 -21t-51 -21l-6 4q0 2 7 7.5t9 6.5l54 39q34 25 52 43q3 2 5 5q6 5 9 5q2 0 3.5 -1.5l2.5 -2.5l6 -6q20 -22 22 -25q16 -17 26 -25q12 -12 12 -14zM42 504q13 -2 23.5 -10.5t10.5 -21.5q0 -36 -43.5 -64
t-80.5 -28q-10 0 -10 8q25 13 43.5 30.5t20.5 39.5v18q0 13 11.5 20.5t24.5 7.5z" />
    <glyph glyph-name="acircumflex" unicode="&#xe2;" 
d="M-40 340q0 -8 -13 -23t-21 -15q-13 0 -32 22t-34 22q-17 0 -51 -21t-51 -21l-6 4q0 2 7 7.5t9 6.5l54 39q34 25 52 43q3 2 5 5q6 5 9 5q2 0 3.5 -1.5l2.5 -2.5l6 -6q20 -22 22 -25q16 -17 26 -25q12 -12 12 -14z" />
    <glyph glyph-name="atilde" unicode="&#xe3;" 
d="M-44 330q0 -8 -13 -23t-21 -15q-13 0 -32 22t-34 22q-17 0 -51 -21t-51 -21l-6 4q0 2 7 7.5t9 6.5l54 39q34 25 52 43q3 2 5 5q6 5 9 5q2 0 3.5 -1.5l2.5 -2.5l6 -6q20 -22 22 -25q16 -17 26 -25q12 -12 12 -14zM-126 506q20 0 48 -12q38 -16 46 -18q26 0 40 20
q5 10 10 10q6 0 6 -6q-4 -27 -31.5 -49.5t-54.5 -22.5q-18 0 -52 17t-50 17q-12 0 -20 -9t-18 -19q-6 0 -6 4q0 21 29.5 44.5t52.5 23.5z" />
    <glyph glyph-name="adieresis" unicode="&#xe4;" 
d="M-36 332q0 -8 -13 -23t-21 -15q-13 0 -32 22t-34 22q-17 0 -51 -21t-51 -21l-6 4q0 2 7 7.5t9 6.5l54 39q34 25 52 43q3 2 5 5q6 5 9 5q2 0 3.5 -1.5l2.5 -2.5l6 -6q20 -22 22 -25q16 -17 26 -25q12 -12 12 -14zM-236 -116q-9 -13 -29.5 -24.5t-34.5 -11.5
q-10 0 -26 14.5t-16 25.5q0 14 15.5 26l28.5 22q6 6 10 6q8 0 38 -39q5 -6 14 -19z" />
    <glyph glyph-name="aring" unicode="&#xe5;" 
d="M-48 332q0 -8 -13 -23t-21 -15q-13 0 -32 22t-34 22q-17 0 -51 -21t-51 -21l-6 4q0 2 7 7.5t9 6.5l54 39q34 25 52 43q3 2 5 5q6 5 9 5q2 0 3.5 -1.5l2.5 -2.5l6 -6q20 -22 22 -25q16 -17 26 -25q12 -12 12 -14zM0 498h-20q-10 0 -20 -4.5t-10 -11.5q0 -4 14 -8l-20 -22
q-9 0 -16.5 4t-7.5 10q0 17 29 31.5t55 14.5h20q26 0 45 -9t19 -25q0 -10 -6.5 -19.5t-17.5 -18.5q-13 -8 -58 -24q-34 -12 -34 -24q0 -9 6 -12l-30 -16q-10 8 -10 14q0 13 62 56q30 21 30 44q0 20 -30 20z" />
    <glyph glyph-name="ae" unicode="&#xe6;" horiz-adv-x="252" 
d="M262 116l-88 -76q-60 -46 -102 -46q-30 0 -51 25t-21 57q0 29 12 57t34 53l40 50q30 34 46 34q12 0 21 -6.5t9 -17.5q0 -19 -66 -70q-32 -25 -32 -48q0 -27 30 -41q23 -11 54 -11q62 0 114 40zM188 436h-20q-10 0 -20 -4.5t-10 -11.5q0 -4 14 -8l-20 -22q-9 0 -16.5 4
t-7.5 10q0 17 29 31.5t55 14.5h20q26 0 45 -9t19 -25q0 -10 -6.5 -19.5t-17.5 -18.5q-13 -8 -58 -24q-34 -12 -34 -24q0 -9 6 -12l-30 -16q-10 8 -10 14q0 13 62 56q30 21 30 44q0 20 -30 20z" />
    <glyph glyph-name="ccedilla" unicode="&#xe7;" horiz-adv-x="294" 
d="M308 118q-59 -46 -108 -77q-81 -51 -122 -51q-32 0 -56 26t-24 58q0 74 89 131q80 51 155 51q15 0 26 -5t14 -19q0 -8 -4 -13q-7 -9 -20 -11q-14 0 -53 12q-20 6 -31 6q-35 0 -60.5 -25.5t-25.5 -60.5q0 -31 19.5 -51.5t50.5 -20.5q37 0 73.5 14.5t74.5 39.5zM96 -26
q26 -4 26 -26q0 -36 -50 -60q-42 -20 -82 -20q-6 0 -6 4l4 2q48 17 64 59.5t34 42.5z" />
    <glyph glyph-name="egrave" unicode="&#xe8;" 
d="M-250 342q0 6 5 12q8 7 11 10q7 8 11 11q8 7 15 7q17 -20 35 -34t37 -14q25 0 56 12.5t60 29.5q1 1 8 2l6 -2l-2 -4q-33 -33 -64 -54q-44 -30 -76 -30q-25 0 -59 15q-40 18 -43 39zM-186 514q14 0 25 -6.5t11 -19.5l-2 -14q0 -23 16.5 -41.5t39.5 -28.5q3 -1 5.5 -2
t2.5 -4q-2 -6 -4 -6q-36 0 -80 26q-50 29 -50 62q0 15 10.5 24.5t25.5 9.5z" />
    <glyph glyph-name="eacute" unicode="&#xe9;" 
d="M-240 344q0 6 5 12q8 7 11 10q7 8 11 11q8 7 15 7q17 -20 35 -34t37 -14q25 0 56 12.5t60 29.5q1 1 8 2l6 -2l-2 -4q-33 -33 -64 -54q-44 -30 -76 -30q-25 0 -59 15q-40 18 -43 39zM-22 516q13 0 23.5 -8.5t10.5 -21.5q0 -36 -43.5 -64t-80.5 -28q-10 0 -10 6
q25 13 43.5 30.5t20.5 39.5v20q0 13 11 19.5t25 6.5z" />
    <glyph glyph-name="ecircumflex" unicode="&#xea;" 
d="M-236 346q0 6 5 12q8 7 11 10q7 8 11 11q8 7 15 7q17 -20 35 -34t37 -14q25 0 56 12.5t60 29.5q1 1 8 2l6 -2l-2 -4q-33 -33 -64 -54q-44 -30 -76 -30q-25 0 -59 15q-40 18 -43 39z" />
    <glyph glyph-name="edieresis" unicode="&#xeb;" 
d="M-202 -118q-9 -13 -29.5 -24.5t-34.5 -11.5q-10 0 -26 14.5t-16 25.5q0 14 15.5 26l28.5 22q6 6 10 6q8 0 38 -39q5 -6 14 -19zM-248 350q0 6 5 12q8 7 11 10q7 8 11 11q8 7 15 7q17 -20 35 -34t37 -14q25 0 56 12.5t60 29.5q1 1 8 2l6 -2l-2 -4q-33 -33 -64 -54
q-44 -30 -76 -30q-25 0 -59 15q-40 18 -43 39z" />
    <glyph glyph-name="igrave" unicode="&#xec;" horiz-adv-x="252" 
d="M264 112q-87 -73 -89 -74q-60 -44 -103 -44q-30 0 -51 25t-21 57q0 29 12 57t34 53l40 50q30 34 46 34q12 0 21 -6.5t9 -17.5q0 -19 -66 -70q-32 -25 -32 -48q0 -27 30 -41q23 -11 54 -11q62 0 114 40zM130 434q14 0 25 -6.5t11 -19.5l-2 -14q0 -23 16.5 -41.5
t39.5 -28.5q3 -1 5.5 -2t2.5 -4q-2 -6 -4 -6q-36 0 -80 26q-50 29 -50 62q0 15 10.5 24.5t25.5 9.5z" />
    <glyph glyph-name="iacute" unicode="&#xed;" horiz-adv-x="252" 
d="M264 112q-87 -73 -89 -74q-60 -44 -103 -44q-30 0 -51 25t-21 57q0 29 12 57t34 53l40 50q30 34 46 34q12 0 21 -6.5t9 -17.5q0 -19 -66 -70q-32 -25 -32 -48q0 -27 30 -41q23 -11 54 -11q62 0 114 40zM208 438q13 0 23.5 -8.5t10.5 -21.5q0 -36 -43.5 -64t-80.5 -28
q-10 0 -10 6q25 13 43.5 30.5t20.5 39.5v20q0 13 11 19.5t25 6.5z" />
    <glyph glyph-name="icircumflex" unicode="&#xee;" horiz-adv-x="420" 
d="M438 114l-194 -158q-61 -106 -119 -170q-54 -60 -89 -60q-32 0 -32 34q0 68 140 172l110 78q10 33 10 58q0 18 -6 33t-22 15q-19 0 -80 -57t-98 -61q-24 0 -38 19.5t-14 46.5q0 50 51 120t85 70q9 0 14.5 -4.5t7.5 -13.5q0 -21 -37 -50t-41 -50q0 -22 17 -38t39 -16
q44 0 122 84t92 84q10 0 16 -8t6 -20q0 -45 -30.5 -95.5l-59.5 -96.5l146 86zM388 -126q-9 -13 -29.5 -24.5t-34.5 -11.5q-10 0 -26 14.5t-16 25.5q0 14 15 26t29 22q6 6 10 6q8 0 38 -39q5 -6 14 -19z" />
    <glyph glyph-name="idieresis" unicode="&#xef;" 
d="M-182 -120q-9 -13 -29.5 -24.5t-34.5 -11.5q-10 0 -26 14.5t-16 25.5q0 14 15.5 26l28.5 22q6 6 10 6q8 0 38 -39q5 -6 14 -19z" />
    <glyph glyph-name="eth" unicode="&#xf0;" horiz-adv-x="200" 
 />
    <glyph glyph-name="ntilde" unicode="&#xf1;" horiz-adv-x="462" 
d="M486 116q-62 -68 -75 -80q-53 -48 -95 -48q-34 0 -55 22t-21 56q0 21 4.5 42l7.5 34l-88 -92q-62 -56 -108 -56q-25 0 -41.5 21.5t-16.5 48.5q0 88 83 146q75 52 167 52q7 0 10 -6l-6 -6q-54 0 -103 -26q-59 -31 -59 -80q0 -22 15 -38t37 -16q31 0 66 24q1 1 56 46
q12 37 45 105q26 53 51 97h-88v24h100q9 18 18 33l22 35l26 38q21 27 36 30q13 0 16.5 -17t3.5 -39q0 -21 -4 -41.5t-10 -38.5h58v-24h-72q-11 -20 -26 -39.5t-36 -40.5l-66 -65q-48 -51 -48 -73q0 -33 40 -55q34 -19 70 -19q16 0 31 8.5t51 41.5z" />
    <glyph glyph-name="ograve" unicode="&#xf2;" horiz-adv-x="252" 
d="M266 112l-90 -74q-60 -44 -102 -44q-31 0 -52.5 25t-21.5 57q0 29 13 56.5t34 53l41 50.5q30 34 46 34q10 0 19 -7t9 -17q0 -19 -66 -70q-32 -25 -32 -48q0 -27 30 -41q23 -11 54 -11q64 0 116 40zM272 356q-18 -14 -27 -19q-16 -9 -33 -9t-31.5 7t-14.5 23q0 11 12 24
q16 14 22 20q12 12 14 12t8 -6q20 -31 50 -52zM110 -124q-9 -13 -29.5 -24.5t-34.5 -11.5q-10 0 -26 14.5t-16 25.5q0 14 15 26t29 22q6 6 10 6q8 0 38 -39q5 -6 14 -19z" />
    <glyph glyph-name="oacute" unicode="&#xf3;" horiz-adv-x="252" 
d="M266 112l-90 -74q-60 -44 -102 -44q-31 0 -52.5 25t-21.5 57q0 29 13 56.5t34 53l41 50.5q30 34 46 34q10 0 19 -7t9 -17q0 -19 -66 -70q-32 -25 -32 -48q0 -27 30 -41q23 -11 54 -11q64 0 116 40zM138 412q20 0 48 -12q38 -16 46 -18q26 0 40 20q5 10 10 10q6 0 6 -6
q-4 -27 -31.5 -49.5t-54.5 -22.5q-18 0 -52 17t-50 17q-12 0 -19 -7l-19 -21q-6 0 -6 4q0 21 29.5 44.5t52.5 23.5z" />
    <glyph glyph-name="ocircumflex" unicode="&#xf4;" horiz-adv-x="378" 
d="M382 202q-14 -15 -33 -24t-45 -14q-7 -71 -69 -121.5t-135 -50.5q-40 0 -70 21q-34 24 -34 63q0 51 40 95q30 33 86 63q11 7 36 17q31 13 40 13l4 -2q0 -3 -3 -5t-5 -3q-40 -11 -70 -35q-36 -30 -36 -67q0 -36 30.5 -57t67.5 -21q40 0 71 24.5t37 63.5q-10 -1 -22.5 -1.5
t-19.5 -0.5q-19 0 -34.5 5t-15.5 21q0 9 4 21.5t6.5 21t6.5 19.5q7 14 17 14q13 0 31 -20q13 -14 23 -22q18 5 30.5 15.5t15.5 28.5q0 3 -13 24q-7 12 -7 14q0 13 11 19.5t25 6.5q13 0 23.5 -8.5t10.5 -21.5q0 -34 -32 -60q-8 -7 -26 -15q-7 -3 -28 -11q21 -12 60 -12z" />
    <glyph glyph-name="otilde" unicode="&#xf5;" 
d="M-178 414q19 0 46 -12q36 -16 46 -18q26 0 40 20l10 10q8 0 8 -6q-4 -27 -31.5 -49.5t-54.5 -22.5q-18 0 -52 17t-50 17q-12 0 -20 -9t-18 -19q-6 0 -6 4q0 20 29 44t53 24z" />
    <glyph glyph-name="odieresis" unicode="&#xf6;" horiz-adv-x="440" 
d="M376 218q14 5 24 16t10 25q0 2 -6 12q-14 23 -14 25q0 13 11 19.5t25 6.5q13 0 23.5 -8.5t10.5 -21.5q0 -34 -32 -60q-10 -9 -26.5 -17t-29.5 -11q-5 -14 -53 -54q-21 -18 -23 -32q0 -18 16.5 -29t37.5 -13q26 0 50 11.5t48 32.5l4 -2q-42 -42 -85 -75q-64 -49 -95 -49
q-26 0 -41 20q-19 25 -19 76q-48 -46 -70 -62q-48 -36 -84 -36q-29 0 -47.5 23.5t-18.5 54.5q0 44 51 118t87 74q26 0 26 -22q0 -30 -48 -60t-48 -54t31 -36t59 -12q50 0 111 81t85 81q8 0 23 -15z" />
    <glyph glyph-name="divide" unicode="&#xf7;" horiz-adv-x="566" 
d="M298 196q1 -1 2 -6q0 -52 -24 -83t-66 -31q-48 0 -48 40q0 45 27.5 73.5t72.5 28.5q33 0 36 -22zM396 528v-6q0 -51 -23.5 -82.5t-62.5 -31.5q-50 0 -50 40q0 45 27.5 73.5t72.5 28.5q30 0 36 -22zM160 352l238 16l72 4q28 0 28 -16q0 -8 -6 -14l-16 -28
q-15 -26 -30.5 -34t-43.5 -8h-36q-147 -16 -274 -16l-2 -2q-12 0 -25 6t-13 16q0 6 14 20q29 32 39 41q16 15 55 15z" />
    <glyph glyph-name="oslash" unicode="&#xf8;" 
d="M-210 430q14 0 25 -6.5t11 -19.5l-2 -14q0 -23 16.5 -41.5t39.5 -28.5q3 -1 5.5 -2t2.5 -4q-2 -6 -4 -6q-36 0 -80 26q-50 29 -50 62q0 15 10.5 24.5t25.5 9.5z" />
    <glyph glyph-name="ugrave" unicode="&#xf9;" 
d="M-114 432q13 0 23.5 -8.5t10.5 -21.5q0 -36 -43.5 -64t-80.5 -28q-10 0 -10 6q25 13 43.5 30.5t20.5 39.5v20q0 13 11 19.5t25 6.5z" />
    <glyph glyph-name="uacute" unicode="&#xfa;" 
d="M-246 344q0 6 5 12q8 7 11 10q7 8 11 11q8 7 15 7q17 -20 35 -34t37 -14q25 0 56 12.5t60 29.5q1 1 8 2l6 -2l-2 -4q-33 -33 -64 -54q-44 -30 -76 -30q-25 0 -59 15q-40 18 -43 39zM-80 506h-20q-10 0 -20 -4.5t-10 -11.5q0 -4 14 -8l-20 -22q-9 0 -16.5 4t-7.5 10
q0 17 29 31.5t55 14.5h20q26 0 45 -9t19 -25q0 -10 -6.5 -19.5t-17.5 -18.5q-13 -8 -58 -24q-34 -12 -34 -24q0 -9 6 -12l-30 -16q-10 8 -10 14q0 13 62 56q30 21 30 44q0 20 -30 20z" />
    <glyph glyph-name="ucircumflex" unicode="&#xfb;" 
d="M-122 430h-20q-10 0 -20 -4.5t-10 -11.5q0 -4 14 -8l-20 -22q-9 0 -16.5 4t-7.5 10q0 17 29 31.5t55 14.5h20q26 0 45 -9t19 -25q0 -10 -6.5 -19.5t-17.5 -18.5q-13 -8 -58 -24q-34 -12 -34 -24q0 -9 6 -12l-30 -16q-10 8 -10 14q0 13 62 56q30 21 30 44q0 20 -30 20z
" />
    <glyph glyph-name="udieresis" unicode="&#xfc;" 
d="M-248 348q0 6 5 12q8 7 11 10q7 8 11 11q8 7 15 7q17 -20 35 -34t37 -14q25 0 56 12.5t60 29.5q1 1 8 2l6 -2l-2 -4q-33 -33 -64 -54q-44 -30 -76 -30q-25 0 -59 15q-40 18 -43 39zM-62 492q20 0 48 -12q38 -16 46 -18q26 0 40 20q5 10 10 10q6 0 6 -6
q-4 -27 -31.5 -49.5t-54.5 -22.5q-18 0 -52 17t-50 17q-12 0 -20 -9t-18 -19q-6 0 -6 4q0 21 29.5 44.5t52.5 23.5z" />
    <glyph glyph-name="yacute" unicode="&#xfd;" horiz-adv-x="420" 
d="M438 114l-194 -158q-61 -106 -119 -170q-54 -60 -89 -60q-32 0 -32 34q0 68 140 172l110 78q10 33 10 58q0 18 -6 33t-22 15q-19 0 -80 -57t-98 -61q-24 0 -38 19.5t-14 46.5q0 50 51 120t85 70q9 0 14.5 -4.5t7.5 -13.5q0 -21 -37 -50t-41 -50q0 -22 17 -38t39 -16
q44 0 122 84t92 84q10 0 16 -8t6 -20q0 -45 -30.5 -95.5l-59.5 -96.5l146 86zM288 394q13 0 23.5 -8.5t10.5 -21.5q0 -36 -43.5 -64t-80.5 -28q-10 0 -10 6q25 13 43.5 30.5t20.5 39.5v20q0 13 11 19.5t25 6.5z" />
    <glyph glyph-name="thorn" unicode="&#xfe;" horiz-adv-x="462" 
d="M98 14l64 97q43 62 86 100q52 47 98 47q29 0 47.5 -16.5t18.5 -45.5q0 -66 -72 -139t-138 -73q-13 0 -21.5 5.5t-8.5 18.5q0 16 11 31t25 15q10 0 38 -10q17 -6 24 -6q30 0 47 26.5t17 59.5q0 24 -13 40t-39 16q-54 0 -106 -84q-38 -60 -60 -134q-44 -133 -46 -137
q-41 -97 -86 -97q-13 0 -22.5 11.5t-9.5 24.5q0 46 47 120l77 114l2 28q0 91 -16.5 169.5t-37.5 78.5q-16 0 -35 -12q-2 -2 -19 -14l-2 2q54 50 93 80t51 32q16 0 21 -11t5 -31q0 -33 -4 -66.5t-12 -83.5l-20 -130l-8 -26h4z" />
    <glyph glyph-name="ydieresis" unicode="&#xff;" horiz-adv-x="420" 
d="M438 114l-194 -158q-61 -106 -119 -170q-54 -60 -89 -60q-32 0 -32 34q0 68 140 172l110 78q10 33 10 58q0 18 -6 33t-22 15q-19 0 -80 -57t-98 -61q-24 0 -38 19.5t-14 46.5q0 50 51 120t85 70q9 0 14.5 -4.5t7.5 -13.5q0 -21 -37 -50t-41 -50q0 -22 17 -38t39 -16
q44 0 122 84t92 84q10 0 16 -8t6 -20q0 -45 -30.5 -95.5l-59.5 -96.5l146 86zM388 -126q-9 -13 -29.5 -24.5t-34.5 -11.5q-10 0 -26 14.5t-16 25.5q0 14 15 26t29 22q6 6 10 6q8 0 38 -39q5 -6 14 -19z" />
  </font>
</defs>
</svg>
